Начать новую тему Ответить на тему
Статистика раздачи
Размер: 310.43 МБ | Добавлен: 26 мар 2019, 20:01 | Скачали: 0
Сидеров: 0  [0 байт/сек]    Личеров: 0  [0 байт/сек]
Пред. тема | След. тема 

Автор
Сообщение

СообщениеДобавлено: 26 мар 2019, 20:01 

Ответить с цитатой 

Melanie Doane - Adam's Rib
Жанр: Soft Rock
Год выпуска диска
: 1999
Производитель диска: USA (Sony)
Аудио кодек: FLAC
Тип рипа: image+.cue
Битрейт аудио: lossless
Продолжительность: 0:46:38
01. Adam's Rib 03:37
02. Happy Homemaker 03:51
03. There Is No Beautiful 03:37
04. Absolutely Happy 03:26
05. Goliath 03:51
06. I Can't Take My Eyes Off You 03:56
07. Waiting For The Tide 04:09
08. How You Cried 04:26
09. The Space Between Us 05:04
10. Mel's Rock Pile 03:27
11. Good Gifts 03:04
12. Sweet Sorrow 04:04
Rick Neigher - Guitar (Acoustic), Bass, Arranger, Programming, Engineer, Producer, Vocals (Background), Guitar (Electric)
Tim Pierce - Guitar (Acoustic), Guitar (Electric), Guitar
David Raven - Drums
Kevin Savigar - Cello, Keyboards, Fender Rhodes, Organ (Hammond), Wurlitzer
Kevin Breit - Guitar (Acoustic)
Jim Hanson - Bass
John Shanks - Guitar (Acoustic), Bass, Ebo, Guitar (Electric)
Melanie Doane - Bass, Arranger, Violin, Piano, Mandolin, Programming, Loops, Main Performer, Vocals (Background), Vocals
Debra Dobkin - Percussion
Tommy Emmanuel - Guitar (Acoustic)
Сканы внутри
Exact Audio Copy V0.99 prebeta 3 from 28. July 2007
EAC extraction logfile from 16. July 2009, 14:17
Melanie Doane / Adam's Rib
Used drive : TSSTcorpCDDVDW SE-S204N Adapter: 6 ID: 4
Read mode : Secure
Utilize accurate stream : Yes
Defeat audio cache : Yes
Make use of C2 pointers : No
Read offset correction : 6
Overread into Lead-In and Lead-Out : No
Fill up missing offset samples with silence : Yes
Delete leading and trailing silent blocks : No
Null samples used in CRC calculations : Yes
Used interface : Installed external ASPI interface
Used output format : User Defined Encoder
Selected bitrate : 768 kBit/s
Quality : High
Add ID3 tag : No
Command line compressor : H:\Program Files\Exact Audio Copy\FLAC\FLAC.EXE
Additional command line options : -6 -V -T "ARTIST=%a" -T "TITLE=%t" -T "ALBUM=%g" -T "DATE=%y" -T "TRACKNUMBER=%n" -T "GENRE=%m" -T "COMMENT=%e" %s -o %d
TOC of the extracted CD
Track | Start | Length | Start sector | End sector
---------------------------------------------------------
1 | 0:00.00 | 3:37.55 | 0 | 16329
2 | 3:37.55 | 3:51.02 | 16330 | 33656
3 | 7:28.57 | 3:37.05 | 33657 | 49936
4 | 11:05.62 | 3:26.70 | 49937 | 65456
5 | 14:32.57 | 3:51.43 | 65457 | 82824
6 | 18:24.25 | 3:56.40 | 82825 | 100564
7 | 22:20.65 | 4:09.57 | 100565 | 119296
8 | 26:30.47 | 4:26.60 | 119297 | 139306
9 | 30:57.32 | 5:04.53 | 139307 | 162159
10 | 36:02.10 | 3:27.22 | 162160 | 177706
11 | 39:29.32 | 3:04.70 | 177707 | 191576
12 | 42:34.27 | 4:04.13 | 191577 | 209889
Range status and errors
Selected range
Filename C:\TTT\Melanie Doane - Adam's Rib\Melanie Doane - Adam's Rib.wav
Peak level 99.8 %
Range quality 100.0 %
Test CRC 03494FDA
Copy CRC 03494FDA
Copy OK
No errors occurred
AccurateRip summary
Track 1 accurately ripped (confidence 12) [0E6DF307]
Track 2 accurately ripped (confidence 10) [17B3A6E6]
Track 3 accurately ripped (confidence 10) [2DC74439]
Track 4 accurately ripped (confidence 10) [15486A27]
Track 5 accurately ripped (confidence 11) [01F70D03]
Track 6 accurately ripped (confidence 11) [2EE0959F]
Track 7 accurately ripped (confidence 11) [A88D8670]
Track 8 accurately ripped (confidence 11) [923DFADA]
Track 9 accurately ripped (confidence 10) [5B072E1E]
Track 10 accurately ripped (confidence 10) [987D5B7B]
Track 11 accurately ripped (confidence 10) [CA7C8D72]
Track 12 accurately ripped (confidence 11) [CD67E78F]
All tracks accurately ripped
End of status report
Правила, инструкции, FAQ!!!
Торрент  Добавлен [26 мар 2019, 20:01] Скачать торрент Магнет ссылка
Скачать торрент
[ Размер 12.95 КБ / Просмотров 2 ]

Статус
Проверен 
 
Размер  310.43 МБ
Приватный: Нет (DHT включён)
.torrent скачан  0
 


     Отправить личное сообщение
   
Страница 1 из 1
Показать сообщения за:  Поле сортировки  
Начать новую тему Ответить на тему


Сейчас этот форум просматривают: нет зарегистрированных пользователей и гости: 0


Вы не можете начинать темы
Вы не можете отвечать на сообщения
Вы не можете редактировать свои сообщения
Вы не можете удалять свои сообщения
Вы не можете добавлять вложения

Перейти:  
cron