Начать новую тему Ответить на тему
Статистика раздачи
Размер: 280.96 МБ | Добавлен: 26 мар 2019, 18:39 | Скачали: 0
Сидеров: 0  [0 байт/сек]    Личеров: 0  [0 байт/сек]
Пред. тема | След. тема 

Автор
Сообщение

СообщениеДобавлено: 26 мар 2019, 18:39 

Ответить с цитатой 

Lucid Dream / Alpha Rhythms
Жанр: Soft Rock
Носитель: CD
Страна-производитель диска: USA
Год издания: 1992
Издатель (лейбл): Waldoxy Records
Номер по каталогу: WCD7409
Страна: USA
Аудиокодек: FLAC (*.flac)
Тип рипа: image+.cue
Битрейт аудио: lossless
Продолжительность: 42:36
Источник (релизер): Cd from collection
Наличие сканов в содержимом раздачи: да
Треклист:
01. Small World
02. Crack in The Mirror
03. River on Life
04. Duck Pits
05. Journey of Swimming
06. Kissed
07. Dark Figures
08. I Don't Wanna Hear It
09. Big Thing
10. That's The Trouble With Him
Код:
Exact Audio Copy V1.0 beta 3 from 29. August 2011
Отчёт EAC об извлечении, выполненном 22. марта 2014, 11:27
Lucid Dream / Alpha Rhythms
Дисковод: Optiarc DVD RW AD-5280S   Adapter: 3  ID: 0
Режим чтения                 : Достоверность
Использование точного потока : Да
Отключение кэша аудио        : Да
Использование указателей C2  : Нет
Коррекция смещения при чтении                     : 48
Способность читать области Lead-in и Lead-out     : Нет
Заполнение пропущенных сэмплов тишиной            : Да
Удаление блоков с тишиной в начале и конце        : Нет
При вычислениях CRC использовались нулевые сэмплы : Да
Интерфейс                                         : Встроенный Win32-интерфейс для Win NT/2000
Выходной формат          : Пользовательский кодировщик
Выбранный битрейт        : 896 kBit/s
Качество                 : Высокий
Добавление ID3-тега      : Нет
Утилита сжатия           : C:\Program Files\Exact Audio Copy\Flac\FLAC.EXE
Дополнительные параметры : -V -8 -T "Date=%year%" -T "Genre=%genre%" %source%
TOC извлечённого CD
     Трек |   Старт  | Длительность | Начальный сектор | Конечный сектор
    ---------------------------------------------------------------------
       1  |  0:00.00 |    3:24.70   |           0      |      15369
       2  |  3:24.70 |    4:19.12   |       15370      |      34806
       3  |  7:44.07 |    5:06.58   |       34807      |      57814
       4  | 12:50.65 |    3:57.32   |       57815      |      75621
       5  | 16:48.22 |    4:22.35   |       75622      |      95306
       6  | 21:10.57 |    4:41.45   |       95307      |     116426
       7  | 25:52.27 |    4:56.65   |      116427      |     138691
       8  | 30:49.17 |    5:05.58   |      138692      |     161624
       9  | 35:55.00 |    3:44.10   |      161625      |     178434
      10  | 39:39.10 |    2:56.30   |      178435      |     191664
Характеристики диапазона извлечения и сообщения об ошибках
Выбранный диапазон
     Имя файла U:\_Upload\Lucid Dream\1992 - Alpha Rhythms\Lucid Dream - Alpha Rhythms.wav
     Пиковый уровень 100.0 %
     Скорость извлечения 4.0 X
     Качество диапазона 100.0 %
     CRC теста EA41454B
     CRC копии EA41454B
     Копирование... OK
Ошибок не произошло
Конец отчёта
==== Контрольная сумма отчёта 1AD75B043FA6EB858E1C0010DBDDD102EF271D940B90067716669D98173DEC5E ====
Правила, инструкции, FAQ!!!
Торрент  Добавлен [26 мар 2019, 18:39] Скачать торрент Магнет ссылка
Скачать торрент
[ Размер 12.1 КБ / Просмотров 4 ]

Статус
Проверен 
 
Размер  280.96 МБ
Приватный: Нет (DHT включён)
.torrent скачан  0
 


     Отправить личное сообщение
   
Страница 1 из 1
Показать сообщения за:  Поле сортировки  
Начать новую тему Ответить на тему


Сейчас этот форум просматривают: нет зарегистрированных пользователей и гости: 0


Вы не можете начинать темы
Вы не можете отвечать на сообщения
Вы не можете редактировать свои сообщения
Вы не можете удалять свои сообщения
Вы не можете добавлять вложения

Перейти:  
cron