Начать новую тему Ответить на тему
Статистика раздачи
Размер: 337.26 МБ | Добавлен: 26 мар 2019, 20:13 | Скачали: 0
Сидеров: 1  [0 байт/сек]    Личеров: 0  [0 байт/сек]
Пред. тема | След. тема 

Автор
Сообщение

СообщениеДобавлено: 26 мар 2019, 20:13 

Ответить с цитатой 

Lisa Miskovsky - Lisa Miskovsky
Жанр: Soft Rock
Год выпуска диска: 2001
Производитель диска: Sweden
Аудио кодек: FLAC
Тип рипа: tracks+.cue
Битрейт аудио: lossless
Продолжительность: 00:54:51
Трэклист:
1 Quietly 4:10
2 Driving One Of Your Cars 3:47
3 Dallas Friends 4:12
4 Don't Say Goodbye 3:30
5 What If 3:41
6 Handbag 4:27
7 Leftovers 3:53
8 Sister 3:23
9 Sad Lullaby 4:23
10 How To Stop 3:26
11 Paperback Boy 4:33
12 Ready For The Fall 3:48
13 Mary Bell 3:02
Код:
Exact Audio Copy V0.99 prebeta 4 from 23. January 2008
EAC extraction logfile from 23. January 2009, 19:51
Lisa Miskovsky / Lisa Miskovsky
Used drive  : HL-DT-STDVD-RW GWA-4082N   Adapter: 0  ID: 0
Read mode               : Secure
Utilize accurate stream : Yes
Defeat audio cache      : Yes
Make use of C2 pointers : No
Read offset correction                      : 667
Overread into Lead-In and Lead-Out          : No
Fill up missing offset samples with silence : Yes
Delete leading and trailing silent blocks   : No
Null samples used in CRC calculations       : Yes
Used interface                              : Installed external ASPI interface
Gap handling                                : Appended to previous track
Used output format              : User Defined Encoder
Selected bitrate                : 128 kBit/s
Quality                         : High
Add ID3 tag                     : No
Command line compressor         : C:\Program\Exact Audio Copy\Flac\flac.exe
Additional command line options : -V -8 -T "artist=%a" -T "title=%t" -T "album=%g" -T "date=%y" -T "tracknumber=%n" -T "genre=%m" %s
TOC of the extracted CD
     Track |   Start  |  Length  | Start sector | End sector
    ---------------------------------------------------------
        1  |  4:38.11 |  4:10.03 |     20861    |    39613
        2  |  8:48.14 |  3:47.14 |     39614    |    56652
        3  | 12:35.28 |  4:11.55 |     56653    |    75532
        4  | 16:47.08 |  3:29.66 |     75533    |    91273
        5  | 20:16.74 |  3:40.73 |     91274    |   107846
        6  | 23:57.72 |  4:26.55 |    107847    |   127851
        7  | 28:24.52 |  3:52.44 |    127852    |   145295
        8  | 32:17.21 |  3:22.41 |    145296    |   160486
        9  | 35:39.62 |  4:22.60 |    160487    |   180196
       10  | 40:02.47 |  3:25.42 |    180197    |   195613
       11  | 43:28.14 |  4:33.26 |    195614    |   216114
       12  | 48:01.40 |  3:47.57 |    216115    |   233196
       13  | 51:49.22 |  3:02.32 |    233197    |   246878
Track  1
     Filename C:\Documents and Settings\Administratцr\Skrivbord\CD-rippar\Lisa Miskovsky - Lisa Miskovsky\01 - Quietly.wav
     Pre-gap length  0:04:40.14
     Peak level 98.8 %
     Track quality 99.9 %
     Test CRC B95A3410
     Copy CRC B95A3410
     Accurately ripped (confidence 8)  [2A5B18F2]
     Copy OK
Track  2
     Filename C:\Documents and Settings\Administratцr\Skrivbord\CD-rippar\Lisa Miskovsky - Lisa Miskovsky\02 - Driving One Of Your Cars.wav
     Pre-gap length  0:00:00.36
     Peak level 98.8 %
     Track quality 100.0 %
     Test CRC 301D68D3
     Copy CRC 301D68D3
     Accurately ripped (confidence 8)  [34CA6089]
     Copy OK
Track  3
     Filename C:\Documents and Settings\Administratцr\Skrivbord\CD-rippar\Lisa Miskovsky - Lisa Miskovsky\03 - Dallas Friends.wav
     Pre-gap length  0:00:01.60
     Peak level 100.0 %
     Track quality 100.0 %
     Test CRC BD572F41
     Copy CRC BD572F41
     Accurately ripped (confidence 8)  [BFAE4B01]
     Copy OK
Track  4
     Filename C:\Documents and Settings\Administratцr\Skrivbord\CD-rippar\Lisa Miskovsky - Lisa Miskovsky\04 - Don't Say Goodbye.wav
     Pre-gap length  0:00:00.77
     Peak level 98.8 %
     Track quality 100.0 %
     Test CRC 1BD4BE2D
     Copy CRC 1BD4BE2D
     Accurately ripped (confidence 8)  [CEB51A93]
     Copy OK
Track  5
     Filename C:\Documents and Settings\Administratцr\Skrivbord\CD-rippar\Lisa Miskovsky - Lisa Miskovsky\05 - What If.wav
     Pre-gap length  0:00:01.21
     Peak level 98.8 %
     Track quality 100.0 %
     Test CRC E945659C
     Copy CRC E945659C
     Accurately ripped (confidence 8)  [2BE7CB4E]
     Copy OK
Track  6
     Filename C:\Documents and Settings\Administratцr\Skrivbord\CD-rippar\Lisa Miskovsky - Lisa Miskovsky\06 - Handbag.wav
     Pre-gap length  0:00:02.17
     Peak level 98.8 %
     Track quality 100.0 %
     Test CRC 2E601392
     Copy CRC 2E601392
     Accurately ripped (confidence 8)  [3D7ED758]
     Copy OK
Track  7
     Filename C:\Documents and Settings\Administratцr\Skrivbord\CD-rippar\Lisa Miskovsky - Lisa Miskovsky\07 - Leftovers.wav
     Suspicious position 0:01:23 - 0:01:24
     Peak level 98.8 %
     Track quality 99.3 %
     Test CRC F30346AE
     Copy CRC 75AA263E
     Cannot be verified as accurate (confidence 8)  [C01C4222], AccurateRip returned [8FD77CD2]
     Copy finished
Track  8
     Filename C:\Documents and Settings\Administratцr\Skrivbord\CD-rippar\Lisa Miskovsky - Lisa Miskovsky\08 - Sister.wav
     Pre-gap length  0:00:00.78
     Peak level 98.8 %
     Track quality 99.9 %
     Test CRC 3A98D7B8
     Copy CRC 3A98D7B8
     Accurately ripped (confidence 8)  [BBEBC612]
     Copy OK
Track  9
     Filename C:\Documents and Settings\Administratцr\Skrivbord\CD-rippar\Lisa Miskovsky - Lisa Miskovsky\09 - Sad Lullaby.wav
     Pre-gap length  0:00:01.33
     Peak level 98.8 %
     Track quality 100.0 %
     Test CRC 860A91EE
     Copy CRC 860A91EE
     Accurately ripped (confidence 8)  [D92D5D67]
     Copy OK
Track 10
     Filename C:\Documents and Settings\Administratцr\Skrivbord\CD-rippar\Lisa Miskovsky - Lisa Miskovsky\10 - How To Stop.wav
     Pre-gap length  0:00:01.97
     Peak level 98.8 %
     Track quality 99.9 %
     Test CRC B37E2A8A
     Copy CRC B37E2A8A
     Accurately ripped (confidence 8)  [527C7621]
     Copy OK
Track 11
     Filename C:\Documents and Settings\Administratцr\Skrivbord\CD-rippar\Lisa Miskovsky - Lisa Miskovsky\11 - Paperback Boy.wav
     Pre-gap length  0:00:00.33
     Peak level 98.8 %
     Track quality 100.0 %
     Test CRC AB244DE9
     Copy CRC AB244DE9
     Accurately ripped (confidence 8)  [9DE1D4C5]
     Copy OK
Track 12
     Filename C:\Documents and Settings\Administratцr\Skrivbord\CD-rippar\Lisa Miskovsky - Lisa Miskovsky\12 - Ready For The Fall.wav
     Pre-gap length  0:00:00.69
     Peak level 98.8 %
     Track quality 100.0 %
     Test CRC B6AAE462
     Copy CRC B6AAE462
     Accurately ripped (confidence 8)  [B5BA2F84]
     Copy OK
Track 13
     Filename C:\Documents and Settings\Administratцr\Skrivbord\CD-rippar\Lisa Miskovsky - Lisa Miskovsky\13 - Mary Bell.wav
     Pre-gap length  0:00:22.74
     Peak level 98.8 %
     Track quality 99.6 %
     Test CRC 2954855B
     Copy CRC 9CDD9F4F
     Cannot be verified as accurate (confidence 8)  [C4B296D7], AccurateRip returned [BBE27BF5]
     Copy OK
11 track(s) accurately ripped
 2 track(s) could not be verified as accurate
Some tracks could not be verified as accurate
There were errors
End of status report
------------------------------------------------------------
Exact Audio Copy V0.99 prebeta 4 from 23. January 2008
EAC extraction logfile from 24. January 2009, 14:13
Lisa Miskovsky / Lisa Miskovsky
Used drive  : SONY    DVD RW DW-G520A   Adapter: 0  ID: 0
Read mode               : Secure
Utilize accurate stream : Yes
Defeat audio cache      : Yes
Make use of C2 pointers : No
Read offset correction                      : 594
Overread into Lead-In and Lead-Out          : No
Fill up missing offset samples with silence : Yes
Delete leading and trailing silent blocks   : No
Null samples used in CRC calculations       : Yes
Used interface                              : Native Win32 interface for Win NT & 2000
Gap handling                                : Appended to previous track
Used output format              : User Defined Encoder
Selected bitrate                : 128 kBit/s
Quality                         : High
Add ID3 tag                     : No
Command line compressor         : C:\Program Files\Exact Audio Copy\Flac\flac.exe
Additional command line options : -V -8 -T "artist=%a" -T "title=%t" -T "album=%g" -T "date=%y" -T "tracknumber=%n" -T "genre=%m" %s
TOC of the extracted CD
     Track |   Start  |  Length  | Start sector | End sector
    ---------------------------------------------------------
        1  |  4:38.11 |  4:10.03 |     20861    |    39613
        2  |  8:48.14 |  3:47.14 |     39614    |    56652
        3  | 12:35.28 |  4:11.55 |     56653    |    75532
        4  | 16:47.08 |  3:29.66 |     75533    |    91273
        5  | 20:16.74 |  3:40.73 |     91274    |   107846
        6  | 23:57.72 |  4:26.55 |    107847    |   127851
        7  | 28:24.52 |  3:52.44 |    127852    |   145295
        8  | 32:17.21 |  3:22.41 |    145296    |   160486
        9  | 35:39.62 |  4:22.60 |    160487    |   180196
       10  | 40:02.47 |  3:25.42 |    180197    |   195613
       11  | 43:28.14 |  4:33.26 |    195614    |   216114
       12  | 48:01.40 |  3:47.57 |    216115    |   233196
       13  | 51:49.22 |  3:02.32 |    233197    |   246878
Track  7
     Filename D:\CD-rippar\Lisa Miskovsky - Lisa Miskovsky\07 - Leftovers.wav
     Peak level 98.8 %
     Track quality 100.0 %
     Test CRC 1363A638
     Copy CRC 1363A638
     Accurately ripped (confidence 8)  [8FD77CD2]
     Copy OK
All tracks accurately ripped
No errors occurred
End of status report
------------------------------------------------------------
Exact Audio Copy V0.99 prebeta 4 from 23. January 2008
EAC extraction logfile from 24. January 2009, 14:13
Lisa Miskovsky / Lisa Miskovsky
Used drive  : SONY    DVD RW DW-G520A   Adapter: 0  ID: 0
Read mode               : Secure
Utilize accurate stream : Yes
Defeat audio cache      : Yes
Make use of C2 pointers : No
Read offset correction                      : 594
Overread into Lead-In and Lead-Out          : No
Fill up missing offset samples with silence : Yes
Delete leading and trailing silent blocks   : No
Null samples used in CRC calculations       : Yes
Used interface                              : Native Win32 interface for Win NT & 2000
Gap handling                                : Appended to previous track
Used output format              : User Defined Encoder
Selected bitrate                : 128 kBit/s
Quality                         : High
Add ID3 tag                     : No
Command line compressor         : C:\Program Files\Exact Audio Copy\Flac\flac.exe
Additional command line options : -V -8 -T "artist=%a" -T "title=%t" -T "album=%g" -T "date=%y" -T "tracknumber=%n" -T "genre=%m" %s
TOC of the extracted CD
     Track |   Start  |  Length  | Start sector | End sector
    ---------------------------------------------------------
        1  |  4:38.11 |  4:10.03 |     20861    |    39613
        2  |  8:48.14 |  3:47.14 |     39614    |    56652
        3  | 12:35.28 |  4:11.55 |     56653    |    75532
        4  | 16:47.08 |  3:29.66 |     75533    |    91273
        5  | 20:16.74 |  3:40.73 |     91274    |   107846
        6  | 23:57.72 |  4:26.55 |    107847    |   127851
        7  | 28:24.52 |  3:52.44 |    127852    |   145295
        8  | 32:17.21 |  3:22.41 |    145296    |   160486
        9  | 35:39.62 |  4:22.60 |    160487    |   180196
       10  | 40:02.47 |  3:25.42 |    180197    |   195613
       11  | 43:28.14 |  4:33.26 |    195614    |   216114
       12  | 48:01.40 |  3:47.57 |    216115    |   233196
       13  | 51:49.22 |  3:02.32 |    233197    |   246878
Track  7
     Filename D:\CD-rippar\Lisa Miskovsky - Lisa Miskovsky\07 - Leftovers.wav
     Peak level 98.8 %
     Track quality 100.0 %
     Test CRC 1363A638
     Copy CRC 1363A638
     Accurately ripped (confidence 8)  [8FD77CD2]
     Copy OK
All tracks accurately ripped
No errors occurred
End of status report
------------------------------------------------------------
Exact Audio Copy V0.99 prebeta 4 from 23. January 2008
EAC extraction logfile from 24. January 2009, 14:23
Lisa Miskovsky / Lisa Miskovsky
Used drive  : SONY    DVD RW DW-G520A   Adapter: 0  ID: 0
Read mode               : Secure
Utilize accurate stream : Yes
Defeat audio cache      : Yes
Make use of C2 pointers : No
Read offset correction                      : 594
Overread into Lead-In and Lead-Out          : No
Fill up missing offset samples with silence : Yes
Delete leading and trailing silent blocks   : No
Null samples used in CRC calculations       : Yes
Used interface                              : Native Win32 interface for Win NT & 2000
Gap handling                                : Appended to previous track
Used output format              : User Defined Encoder
Selected bitrate                : 128 kBit/s
Quality                         : High
Add ID3 tag                     : No
Command line compressor         : C:\Program Files\Exact Audio Copy\Flac\flac.exe
Additional command line options : -V -8 -T "artist=%a" -T "title=%t" -T "album=%g" -T "date=%y" -T "tracknumber=%n" -T "genre=%m" %s
TOC of the extracted CD
     Track |   Start  |  Length  | Start sector | End sector
    ---------------------------------------------------------
        1  |  4:38.11 |  4:10.03 |     20861    |    39613
        2  |  8:48.14 |  3:47.14 |     39614    |    56652
        3  | 12:35.28 |  4:11.55 |     56653    |    75532
        4  | 16:47.08 |  3:29.66 |     75533    |    91273
        5  | 20:16.74 |  3:40.73 |     91274    |   107846
        6  | 23:57.72 |  4:26.55 |    107847    |   127851
        7  | 28:24.52 |  3:52.44 |    127852    |   145295
        8  | 32:17.21 |  3:22.41 |    145296    |   160486
        9  | 35:39.62 |  4:22.60 |    160487    |   180196
       10  | 40:02.47 |  3:25.42 |    180197    |   195613
       11  | 43:28.14 |  4:33.26 |    195614    |   216114
       12  | 48:01.40 |  3:47.57 |    216115    |   233196
       13  | 51:49.22 |  3:02.32 |    233197    |   246878
Track 13
     Filename D:\CD-rippar\Lisa Miskovsky - Lisa Miskovsky\13 - Mary Bell.wav
     Pre-gap length  0:00:22.74
     Peak level 98.8 %
     Track quality 100.0 %
     Test CRC 19A6FB77
     Copy CRC 19A6FB77
     Accurately ripped (confidence 8)  [BBE27BF5]
     Copy OK
All tracks accurately ripped
No errors occurred
End of status report
Код:
REM GENRE Pop
REM DATE 2001
REM DISCID A60BC50D
REM COMMENT "ExactAudioCopy v0.99pb4"
PERFORMER "Lisa Miskovsky"
TITLE "Lisa Miskovsky"
FILE "Lisa Miskovsky - Lisa Miskovsky\01 - Quietly.wav" WAVE
  TRACK 01 AUDIO
    TITLE "Quietly"
    PERFORMER "Lisa Miskovsky"
    FLAGS DCP
    PREGAP 04:38:11
    INDEX 01 00:00:00
  TRACK 02 AUDIO
    TITLE "Driving One Of Your Cars"
    PERFORMER "Lisa Miskovsky"
    INDEX 00 04:09:51
FILE "Lisa Miskovsky - Lisa Miskovsky\02 - Driving One Of Your Cars.wav" WAVE
    INDEX 01 00:00:00
  TRACK 03 AUDIO
    TITLE "Dallas Friends"
    PERFORMER "Lisa Miskovsky"
    INDEX 00 03:45:44
FILE "Lisa Miskovsky - Lisa Miskovsky\03 - Dallas Friends.wav" WAVE
    INDEX 01 00:00:00
  TRACK 04 AUDIO
    TITLE "Don't Say Goodbye"
    PERFORMER "Lisa Miskovsky"
    INDEX 00 04:10:72
FILE "Lisa Miskovsky - Lisa Miskovsky\04 - Don't Say Goodbye.wav" WAVE
    INDEX 01 00:00:00
  TRACK 05 AUDIO
    TITLE "What If"
    PERFORMER "Lisa Miskovsky"
    INDEX 00 03:28:50
FILE "Lisa Miskovsky - Lisa Miskovsky\05 - What If.wav" WAVE
    INDEX 01 00:00:00
  TRACK 06 AUDIO
    TITLE "Handbag"
    PERFORMER "Lisa Miskovsky"
    INDEX 00 03:38:60
FILE "Lisa Miskovsky - Lisa Miskovsky\06 - Handbag.wav" WAVE
    INDEX 01 00:00:00
FILE "Lisa Miskovsky - Lisa Miskovsky\07 - Leftovers.wav" WAVE
  TRACK 07 AUDIO
    TITLE "Leftovers"
    PERFORMER "Lisa Miskovsky"
    INDEX 01 00:00:00
  TRACK 08 AUDIO
    TITLE "Sister"
    PERFORMER "Lisa Miskovsky"
    INDEX 00 03:51:60
FILE "Lisa Miskovsky - Lisa Miskovsky\08 - Sister.wav" WAVE
    INDEX 01 00:00:00
  TRACK 09 AUDIO
    TITLE "Sad Lullaby"
    PERFORMER "Lisa Miskovsky"
    INDEX 00 03:21:16
FILE "Lisa Miskovsky - Lisa Miskovsky\09 - Sad Lullaby.wav" WAVE
    INDEX 01 00:00:00
  TRACK 10 AUDIO
    TITLE "How To Stop"
    PERFORMER "Lisa Miskovsky"
    INDEX 00 04:20:62
FILE "Lisa Miskovsky - Lisa Miskovsky\10 - How To Stop.wav" WAVE
    INDEX 01 00:00:00
  TRACK 11 AUDIO
    TITLE "Paperback Boy"
    PERFORMER "Lisa Miskovsky"
    INDEX 00 03:25:17
FILE "Lisa Miskovsky - Lisa Miskovsky\11 - Paperback Boy.wav" WAVE
    INDEX 01 00:00:00
  TRACK 12 AUDIO
    TITLE "Ready For The Fall"
    PERFORMER "Lisa Miskovsky"
    INDEX 00 04:32:49
FILE "Lisa Miskovsky - Lisa Miskovsky\12 - Ready For The Fall.wav" WAVE
    INDEX 01 00:00:00
  TRACK 13 AUDIO
    TITLE "Mary Bell"
    PERFORMER "Lisa Miskovsky"
    INDEX 00 03:25:01
FILE "Lisa Miskovsky - Lisa Miskovsky\13 - Mary Bell.wav" WAVE
    INDEX 01 00:00:00
Цитата:
Цитата:
"Источник: what.cd (релизер l33tuser)".
[/spoiler]
Правила, инструкции, FAQ!!!
Торрент  Добавлен [26 мар 2019, 20:13] Скачать торрент Магнет ссылка
Скачать торрент
[ Размер 14.45 КБ / Просмотров 0 ]

Статус
Проверен 
 
Размер  337.26 МБ
Приватный: Нет (DHT включён)
.torrent скачан  0
 


     Отправить личное сообщение
   
Страница 1 из 1
Показать сообщения за:  Поле сортировки  
Начать новую тему Ответить на тему


Сейчас этот форум просматривают: нет зарегистрированных пользователей и гости: 0


Вы не можете начинать темы
Вы не можете отвечать на сообщения
Вы не можете редактировать свои сообщения
Вы не можете удалять свои сообщения
Вы не можете добавлять вложения

Перейти:  
cron