Начать новую тему Ответить на тему
Статистика раздачи
Размер: 527.42 МБ | Добавлен: 26 мар 2019, 20:17 | Скачали: 1
Сидеров: 0  [0 байт/сек]    Личеров: 1  [0 байт/сек]
Пред. тема | След. тема 

Автор
Сообщение

СообщениеДобавлено: 26 мар 2019, 20:17 

Ответить с цитатой 

Lisa Miskovsky - Last Year's Songs: Greatest Hits [Compilation]
Жанр: Soft Rock
Год выпуска диска: 2008
Производитель диска: Sweden
Аудио кодек: FLAC
Тип рипа: tracks+.cue
Битрейт аудио: lossless
Продолжительность: 01:19:11
Трэклист:
1. Driving One Of Your Cars [03:48]
2. Another Shape Of My Heart [05:17]
3. What If? [03:41]
4. Quietly [04:13]
5. Sad Lullaby [04:24]
6. Raindrops Keep Falling On My Head [04:13]
7. Hanna Från Arlöv (feat. Christian Kjellvander) [04:25]
8. Alright (feat. Last Patrol) [03:42]
9. Lady Stardust [04:41]
10. Sing To Me [04:38]
11. A Brand New Day [03:45]
12. Take Me By The Hand [03:55]
13. Back To Stoneberry Road [03:02]
14. Mary [04:11]
15. Sweet Misery [04:18]
16. Acceptable Losses [05:06]
17. Little Bird [03:59]
18. Last Year's Song [04:27]
19. Another Shape Of My Heart (Bassflow Remake) [03:28]
Код:
Exact Audio Copy V0.99 prebeta 4 from 23. January 2008
EAC extraction logfile from 4. February 2009, 22:05
Lisa Miskovsky / Last Year's Songs
Used drive  : SONY    DVD-ROM DDU1615   Adapter: 0  ID: 1
Read mode               : Secure
Utilize accurate stream : Yes
Defeat audio cache      : Yes
Make use of C2 pointers : No
Read offset correction                      : 6
Overread into Lead-In and Lead-Out          : No
Fill up missing offset samples with silence : Yes
Delete leading and trailing silent blocks   : No
Null samples used in CRC calculations       : Yes
Used interface                              : Installed external ASPI interface
Gap handling                                : Appended to previous track
Used output format              : User Defined Encoder
Selected bitrate                : 128 kBit/s
Quality                         : High
Add ID3 tag                     : No
Command line compressor         : C:\Program Files\Exact Audio Copy\Flac\flac.exe
Additional command line options : -V -8 -T "artist=%a" -T "title=%t" -T "album=%g" -T "date=%y" -T "tracknumber=%n" -T "genre=%m" %s
TOC of the extracted CD
     Track |   Start  |  Length  | Start sector | End sector
    ---------------------------------------------------------
        1  |  0:00.00 |  3:48.11 |         0    |    17110
        2  |  3:48.11 |  5:17.04 |     17111    |    40889
        3  |  9:05.15 |  3:41.16 |     40890    |    57480
        4  | 12:46.31 |  4:12.54 |     57481    |    76434
        5  | 16:59.10 |  4:23.44 |     76435    |    96203
        6  | 21:22.54 |  4:12.58 |     96204    |   115161
        7  | 25:35.37 |  4:24.73 |    115162    |   135034
        8  | 30:00.35 |  3:42.31 |    135035    |   151715
        9  | 33:42.66 |  4:40.65 |    151716    |   172780
       10  | 38:23.56 |  4:38.10 |    172781    |   193640
       11  | 43:01.66 |  3:44.55 |    193641    |   210495
       12  | 46:46.46 |  3:54.45 |    210496    |   228090
       13  | 50:41.16 |  3:01.51 |    228091    |   241716
       14  | 53:42.67 |  4:10.40 |    241717    |   260506
       15  | 57:53.32 |  4:17.68 |    260507    |   279849
       16  | 62:11.25 |  5:06.37 |    279850    |   302836
       17  | 67:17.62 |  3:59.06 |    302837    |   320767
       18  | 71:16.68 |  4:26.50 |    320768    |   340767
       19  | 75:43.43 |  3:28.21 |    340768    |   356388
Track  1
     Filename C:\EAC rips\Lisa Miskovsky - 2008 - Last Year's Songs\01 - Driving One of Your Cars.wav
     Pre-gap length  0:00:02.00
     Peak level 88.1 %
     Track quality 99.9 %
     Test CRC F606D707
     Copy CRC F606D707
     Track not present in AccurateRip database
     Copy OK
Track  2
     Filename C:\EAC rips\Lisa Miskovsky - 2008 - Last Year's Songs\02 - Another Shape of My Heart.wav
     Pre-gap length  0:00:01.88
     Peak level 98.9 %
     Track quality 100.0 %
     Test CRC 43F6DC49
     Copy CRC 43F6DC49
     Track not present in AccurateRip database
     Copy OK
Track  3
     Filename C:\EAC rips\Lisa Miskovsky - 2008 - Last Year's Songs\03 - What If.wav
     Pre-gap length  0:00:01.24
     Peak level 98.9 %
     Track quality 100.0 %
     Test CRC A9D7EBA2
     Copy CRC A9D7EBA2
     Track not present in AccurateRip database
     Copy OK
Track  4
     Filename C:\EAC rips\Lisa Miskovsky - 2008 - Last Year's Songs\04 - Quietly.wav
     Pre-gap length  0:00:02.04
     Peak level 98.9 %
     Track quality 100.0 %
     Test CRC EC0BC5B8
     Copy CRC EC0BC5B8
     Track not present in AccurateRip database
     Copy OK
Track  5
     Filename C:\EAC rips\Lisa Miskovsky - 2008 - Last Year's Songs\05 - Sad Lullaby.wav
     Pre-gap length  0:00:02.60
     Peak level 98.9 %
     Track quality 100.0 %
     Test CRC 9AF6EC91
     Copy CRC 9AF6EC91
     Track not present in AccurateRip database
     Copy OK
Track  6
     Filename C:\EAC rips\Lisa Miskovsky - 2008 - Last Year's Songs\06 - Raindrops Keep Falling on My Head.wav
     Pre-gap length  0:00:02.78
     Peak level 88.1 %
     Track quality 100.0 %
     Test CRC 79CAF9C0
     Copy CRC 79CAF9C0
     Track not present in AccurateRip database
     Copy OK
Track  7
     Filename C:\EAC rips\Lisa Miskovsky - 2008 - Last Year's Songs\07 - Hanna frеn Arlцv (feat. Christian Kjellvander).wav
     Pre-gap length  0:00:01.76
     Peak level 84.7 %
     Track quality 99.9 %
     Test CRC 9725E5F3
     Copy CRC 9725E5F3
     Track not present in AccurateRip database
     Copy OK
Track  8
     Filename C:\EAC rips\Lisa Miskovsky - 2008 - Last Year's Songs\08 - Alright (feat. Lost Patrol).wav
     Pre-gap length  0:00:01.65
     Peak level 98.9 %
     Track quality 100.0 %
     Test CRC 98308699
     Copy CRC 98308699
     Track not present in AccurateRip database
     Copy OK
Track  9
     Filename C:\EAC rips\Lisa Miskovsky - 2008 - Last Year's Songs\09 - Lady Stardust.wav
     Pre-gap length  0:00:02.33
     Peak level 98.9 %
     Track quality 100.0 %
     Test CRC 75C6ADE5
     Copy CRC 75C6ADE5
     Track not present in AccurateRip database
     Copy OK
Track 10
     Filename C:\EAC rips\Lisa Miskovsky - 2008 - Last Year's Songs\10 - Sing to Me.wav
     Pre-gap length  0:00:02.18
     Peak level 97.8 %
     Track quality 100.0 %
     Test CRC 2C50CD3F
     Copy CRC 2C50CD3F
     Track not present in AccurateRip database
     Copy OK
Track 11
     Filename C:\EAC rips\Lisa Miskovsky - 2008 - Last Year's Songs\11 - A Brand New Day.wav
     Pre-gap length  0:00:02.46
     Peak level 97.8 %
     Track quality 100.0 %
     Test CRC CAC310BE
     Copy CRC CAC310BE
     Track not present in AccurateRip database
     Copy OK
Track 12
     Filename C:\EAC rips\Lisa Miskovsky - 2008 - Last Year's Songs\12 - Take Me By the Hand.wav
     Pre-gap length  0:00:02.29
     Peak level 97.8 %
     Track quality 100.0 %
     Test CRC 170CCEBB
     Copy CRC 170CCEBB
     Track not present in AccurateRip database
     Copy OK
Track 13
     Filename C:\EAC rips\Lisa Miskovsky - 2008 - Last Year's Songs\13 - Back to Stoneberry Road.wav
     Pre-gap length  0:00:01.70
     Peak level 98.9 %
     Track quality 100.0 %
     Test CRC 3A4CA8C7
     Copy CRC 3A4CA8C7
     Track not present in AccurateRip database
     Copy OK
Track 14
     Filename C:\EAC rips\Lisa Miskovsky - 2008 - Last Year's Songs\14 - Mary.wav
     Peak level 88.4 %
     Track quality 100.0 %
     Test CRC 6C69EC10
     Copy CRC 6C69EC10
     Track not present in AccurateRip database
     Copy OK
Track 15
     Filename C:\EAC rips\Lisa Miskovsky - 2008 - Last Year's Songs\15 - Sweet Misery.wav
     Pre-gap length  0:00:01.69
     Peak level 100.0 %
     Track quality 100.0 %
     Test CRC DEA33CD6
     Copy CRC DEA33CD6
     Track not present in AccurateRip database
     Copy OK
Track 16
     Filename C:\EAC rips\Lisa Miskovsky - 2008 - Last Year's Songs\16 - Acceptable Losses.wav
     Pre-gap length  0:00:01.98
     Peak level 85.8 %
     Track quality 99.9 %
     Test CRC B14FF561
     Copy CRC B14FF561
     Track not present in AccurateRip database
     Copy OK
Track 17
     Filename C:\EAC rips\Lisa Miskovsky - 2008 - Last Year's Songs\17 - Little Bird.wav
     Pre-gap length  0:00:01.20
     Peak level 100.0 %
     Track quality 99.9 %
     Test CRC 322BE58B
     Copy CRC 322BE58B
     Track not present in AccurateRip database
     Copy OK
Track 18
     Filename C:\EAC rips\Lisa Miskovsky - 2008 - Last Year's Songs\18 - Last Year's Song.wav
     Pre-gap length  0:00:01.49
     Peak level 98.9 %
     Track quality 100.0 %
     Test CRC D479F2D7
     Copy CRC D479F2D7
     Track not present in AccurateRip database
     Copy OK
Track 19
     Filename C:\EAC rips\Lisa Miskovsky - 2008 - Last Year's Songs\19 - Another Shape of My Heart (Bassflow Remake).wav
     Pre-gap length  0:00:01.08
     Peak level 97.0 %
     Track quality 100.0 %
     Test CRC 0ADBC72F
     Copy CRC 0ADBC72F
     Track not present in AccurateRip database
     Copy OK
None of the tracks are present in the AccurateRip database
No errors occurred
End of status report
Код:
REM GENRE Pop
REM DATE 2008
REM DISCID 00128F13
REM COMMENT "ExactAudioCopy v0.99pb4"
FILE "01 - Driving One of Your Cars.wav" WAVE
  TRACK 01 AUDIO
    INDEX 01 00:00:00
  TRACK 02 AUDIO
    INDEX 00 03:46:20
FILE "02 - Another Shape of My Heart.wav" WAVE
    INDEX 01 00:00:00
  TRACK 03 AUDIO
    INDEX 00 05:15:61
FILE "03 - What If.wav" WAVE
    INDEX 01 00:00:00
  TRACK 04 AUDIO
    INDEX 00 03:39:13
FILE "04 - Quietly.wav" WAVE
    INDEX 01 00:00:00
  TRACK 05 AUDIO
    INDEX 00 04:10:09
FILE "05 - Sad Lullaby.wav" WAVE
    INDEX 01 00:00:00
  TRACK 06 AUDIO
    INDEX 00 04:20:60
FILE "06 - Raindrops Keep Falling on My Head.wav" WAVE
    INDEX 01 00:00:00
  TRACK 07 AUDIO
    INDEX 00 04:11:01
FILE "07 - Hanna frеn Arlцv (feat. Christian Kjellvander).wav" WAVE
    INDEX 01 00:00:00
  TRACK 08 AUDIO
    INDEX 00 04:23:24
FILE "08 - Alright (feat. Lost Patrol).wav" WAVE
    INDEX 01 00:00:00
  TRACK 09 AUDIO
    INDEX 00 03:40:06
FILE "09 - Lady Stardust.wav" WAVE
    INDEX 01 00:00:00
  TRACK 10 AUDIO
    INDEX 00 04:38:51
FILE "10 - Sing to Me.wav" WAVE
    INDEX 01 00:00:00
  TRACK 11 AUDIO
    INDEX 00 04:35:50
FILE "11 - A Brand New Day.wav" WAVE
    INDEX 01 00:00:00
  TRACK 12 AUDIO
    INDEX 00 03:42:33
FILE "12 - Take Me By the Hand.wav" WAVE
    INDEX 01 00:00:00
  TRACK 13 AUDIO
    INDEX 00 03:52:67
FILE "13 - Back to Stoneberry Road.wav" WAVE
    INDEX 01 00:00:00
FILE "14 - Mary.wav" WAVE
  TRACK 14 AUDIO
    INDEX 01 00:00:00
  TRACK 15 AUDIO
    INDEX 00 04:08:63
FILE "15 - Sweet Misery.wav" WAVE
    INDEX 01 00:00:00
  TRACK 16 AUDIO
    INDEX 00 04:15:69
FILE "16 - Acceptable Losses.wav" WAVE
    INDEX 01 00:00:00
  TRACK 17 AUDIO
    INDEX 00 05:05:22
FILE "17 - Little Bird.wav" WAVE
    INDEX 01 00:00:00
  TRACK 18 AUDIO
    INDEX 00 03:57:44
FILE "18 - Last Year's Song.wav" WAVE
    INDEX 01 00:00:00
  TRACK 19 AUDIO
    INDEX 00 04:25:44
FILE "19 - Another Shape of My Heart (Bassflow Remake).wav" WAVE
    INDEX 01 00:00:00
Доп. информация:
Источник: what.cd (релизер Jola)
Правила, инструкции, FAQ!!!
Торрент  Добавлен [26 мар 2019, 20:17] Скачать торрент Магнет ссылка
Скачать торрент
[ Размер 12.02 КБ / Просмотров 10 ]

Статус
Проверен 
 
Размер  527.42 МБ
Приватный: Нет (DHT включён)
.torrent скачан  1
 


     Отправить личное сообщение
   
Страница 1 из 1
Показать сообщения за:  Поле сортировки  
Начать новую тему Ответить на тему


Сейчас этот форум просматривают: нет зарегистрированных пользователей и гости: 0


Вы не можете начинать темы
Вы не можете отвечать на сообщения
Вы не можете редактировать свои сообщения
Вы не можете удалять свои сообщения
Вы не можете добавлять вложения

Перейти:  
cron