Начать новую тему Ответить на тему
Статистика раздачи
Размер: 328.92 МБ | Добавлен: 26 мар 2019, 20:13 | Скачали: 0
Сидеров: 0  [0 байт/сек]    Личеров: 0  [0 байт/сек]
Пред. тема | След. тема 

Автор
Сообщение

СообщениеДобавлено: 26 мар 2019, 20:13 

Ответить с цитатой 

Lisa Miskovsky - Fallingwater
Жанр: Soft Rock
Год выпуска диска: 2003
Производитель диска: Sweden
Аудио кодек: FLAC
Тип рипа: tracks+.cue
Битрейт аудио: lossless
Продолжительность: 00:50:23
Трэклист:
1. Lady Stardust 4:42
2. A Brand New Day 3:45
3. Sing To Me 4:37
4. You Dance Just Like Me 3:14
5. Sweet Dreams 3:19
6. One Dark Night 4:43
7. Midnight Sun 3:47
8. Butterfly Man 4:47
9. Restless Heart 5:22
10. Joan Of Arc 5:05
11. Take Me By The Hand 3:55
12. Back To Stoneberry Road 3:05
Код:
Exact Audio Copy V0.99 prebeta 4 from 23. January 2008
EAC extraheringsloggfil frеn 14. Mars 2008, 14:55
Lisa Miskovsky / Fallingwater
Anvдnd enhet  : ATAPI   DVD DUAL 4XMax   Adapter: 1  ID: 0
Lдsmetod                 : Sдker
Utnyttja accurate stream : Ja
Bekдmpa ljudcache        : Ja
Anvдnd C2 pekare         : Nej
Lдs-offset-korrigering                         : 689
Lдs in i Lead-In och Lead-Out                  : Nej
Fyll upp saknade offset-samplingar med tystnad : Ja
Radera inledande och efterslдpande tysta block : Nej
Nollsamplingar har anvдnts i CRC berдkningarna : Ja
Дnvдnt interface                               : Native Win32 grдnssnitt fцr Win NT & 2000
Gap hantering                                  : Lдgg till till fцregеende spеr
Anvдnt output format                  : Anvдndardefinierad kodare
Vald bitrate                          : 128 kBit/s
Kvalite                               : Hцg
Lдgg till ID3 taggar                  : Nej
Kommandolinjekompressor               : C:\Program\FLAC\flac.exe
Ytterligare kommandoradsinstдllningar : -V -8 -T "artist=%a" -T "title=%t" -T "album=%g" -T "date=%y" -T "tracknumber=%n" -T "genre=%m" %s
TOC pе den extraherade CD'n
     Spеr |   Start  |   Lдngd  | Startsektor | Slutsektor
    -------------------------------------------------------
       1  |  0:00.00 |  4:42.22 |        0    |    21171
       2  |  4:42.22 |  3:44.71 |    21172    |    38042
       3  |  8:27.18 |  4:37.36 |    38043    |    58853
       4  | 13:04.54 |  3:14.14 |    58854    |    73417
       5  | 16:18.68 |  3:18.62 |    73418    |    88329
       6  | 19:37.55 |  4:43.31 |    88330    |   109585
       7  | 24:21.11 |  3:47.00 |   109586    |   126610
       8  | 28:08.11 |  4:47.26 |   126611    |   148161
       9  | 32:55.37 |  5:22.27 |   148162    |   172338
      10  | 38:17.64 |  5:05.35 |   172339    |   195248
      11  | 43:23.24 |  3:54.74 |   195249    |   212872
      12  | 47:18.23 |  3:05.24 |   212873    |   226771
Spеr  1
     Filnamn C:\FLAC\Lisa Miskovsky - Fallingwater (2003) [FLAC]\01 - Lady Stardust.wav
     Fцr-gap lдngd  0:00:02.00
     Peak-nivе 97.7 %
     Spеrkvalitй 100.0 %
     Kopiera CRC 5AB96EE9
     Korrekt rippat (konfidens 12)  [427150D7]
     Kopia OK
Spеr  2
     Filnamn C:\FLAC\Lisa Miskovsky - Fallingwater (2003) [FLAC]\02 - A Brand New Day.wav
     Peak-nivе 97.7 %
     Spеrkvalitй 100.0 %
     Kopiera CRC 4055B3AA
     Korrekt rippat (konfidens 10)  [89D3E50D]
     Kopia OK
Spеr  3
     Filnamn C:\FLAC\Lisa Miskovsky - Fallingwater (2003) [FLAC]\03 - Sing To Me.wav
     Peak-nivе 97.7 %
     Spеrkvalitй 100.0 %
     Kopiera CRC 53B34FBD
     Korrekt rippat (konfidens 10)  [25E82298]
     Kopia OK
Spеr  4
     Filnamn C:\FLAC\Lisa Miskovsky - Fallingwater (2003) [FLAC]\04 - You Dance Just Like Me.wav
     Peak-nivе 97.7 %
     Spеrkvalitй 100.0 %
     Kopiera CRC 4E29D352
     Korrekt rippat (konfidens 11)  [B56FE481]
     Kopia OK
Spеr  5
     Filnamn C:\FLAC\Lisa Miskovsky - Fallingwater (2003) [FLAC]\05 - Sweet Dreams.wav
     Peak-nivе 97.7 %
     Spеrkvalitй 100.0 %
     Kopiera CRC 4F548150
     Korrekt rippat (konfidens 11)  [314671CB]
     Kopia OK
Spеr  6
     Filnamn C:\FLAC\Lisa Miskovsky - Fallingwater (2003) [FLAC]\06 - One Dark Night.wav
     Peak-nivе 97.7 %
     Spеrkvalitй 100.0 %
     Kopiera CRC 42A6E814
     Korrekt rippat (konfidens 10)  [8822CD61]
     Kopia OK
Spеr  7
     Filnamn C:\FLAC\Lisa Miskovsky - Fallingwater (2003) [FLAC]\07 - Midnight Sun.wav
     Peak-nivе 97.7 %
     Spеrkvalitй 99.9 %
     Kopiera CRC F0821948
     Korrekt rippat (konfidens 11)  [8C7C5BBA]
     Kopia OK
Spеr  8
     Filnamn C:\FLAC\Lisa Miskovsky - Fallingwater (2003) [FLAC]\08 - Butterfly Man.wav
     Peak-nivе 97.7 %
     Spеrkvalitй 100.0 %
     Kopiera CRC EF2FC21A
     Korrekt rippat (konfidens 11)  [80776AAD]
     Kopia OK
Spеr  9
     Filnamn C:\FLAC\Lisa Miskovsky - Fallingwater (2003) [FLAC]\09 - Restless Heart.wav
     Peak-nivе 98.8 %
     Spеrkvalitй 100.0 %
     Kopiera CRC B0DB064E
     Korrekt rippat (konfidens 12)  [5B1562CF]
     Kopia OK
Spеr 10
     Filnamn C:\FLAC\Lisa Miskovsky - Fallingwater (2003) [FLAC]\10 - Joan Of Arc.wav
     Peak-nivе 97.7 %
     Spеrkvalitй 100.0 %
     Kopiera CRC 69AA6867
     Korrekt rippat (konfidens 12)  [EE39058F]
     Kopia OK
Spеr 11
     Filnamn C:\FLAC\Lisa Miskovsky - Fallingwater (2003) [FLAC]\11 - Take Me By The Hand.wav
     Peak-nivе 97.7 %
     Spеrkvalitй 100.0 %
     Kopiera CRC C96A2FE1
     Korrekt rippat (konfidens 12)  [E1142121]
     Kopia OK
Spеr 12
     Filnamn C:\FLAC\Lisa Miskovsky - Fallingwater (2003) [FLAC]\12 - Back To Stoneberry Road.wav
     Fцr-gap lдngd  0:00:00.26
     Peak-nivе 97.7 %
     Spеrkvalitй 99.9 %
     Kopiera CRC 02B4C2F1
     Korrekt rippat (konfidens 10)  [14E5021A]
     Kopia OK
Alla spеr lдstes korrekt
Inga fel uppstod
Slut pе status rapport
Код:
REM GENRE Pop
REM DATE 2003
REM DISCID BD0BCF0C
REM COMMENT "ExactAudioCopy v0.99pb4"
PERFORMER "Lisa Miskovsky"
TITLE "Fallingwater"
FILE "01 - Lady Stardust.wav" WAVE
  TRACK 01 AUDIO
    TITLE "Lady Stardust"
    PERFORMER "Lisa Miskovsky"
    INDEX 01 00:00:00
FILE "02 - A Brand New Day.wav" WAVE
  TRACK 02 AUDIO
    TITLE "A Brand New Day"
    PERFORMER "Lisa Miskovsky"
    INDEX 01 00:00:00
FILE "03 - Sing To Me.wav" WAVE
  TRACK 03 AUDIO
    TITLE "Sing To Me"
    PERFORMER "Lisa Miskovsky"
    INDEX 01 00:00:00
FILE "04 - You Dance Just Like Me.wav" WAVE
  TRACK 04 AUDIO
    TITLE "You Dance Just Like Me"
    PERFORMER "Lisa Miskovsky"
    INDEX 01 00:00:00
FILE "05 - Sweet Dreams.wav" WAVE
  TRACK 05 AUDIO
    TITLE "Sweet Dreams"
    PERFORMER "Lisa Miskovsky"
    INDEX 01 00:00:00
FILE "06 - One Dark Night.wav" WAVE
  TRACK 06 AUDIO
    TITLE "One Dark Night"
    PERFORMER "Lisa Miskovsky"
    INDEX 01 00:00:00
FILE "07 - Midnight Sun.wav" WAVE
  TRACK 07 AUDIO
    TITLE "Midnight Sun"
    PERFORMER "Lisa Miskovsky"
    INDEX 01 00:00:00
FILE "08 - Butterfly Man.wav" WAVE
  TRACK 08 AUDIO
    TITLE "Butterfly Man"
    PERFORMER "Lisa Miskovsky"
    INDEX 01 00:00:00
FILE "09 - Restless Heart.wav" WAVE
  TRACK 09 AUDIO
    TITLE "Restless Heart"
    PERFORMER "Lisa Miskovsky"
    INDEX 01 00:00:00
FILE "10 - Joan Of Arc.wav" WAVE
  TRACK 10 AUDIO
    TITLE "Joan Of Arc"
    PERFORMER "Lisa Miskovsky"
    INDEX 01 00:00:00
FILE "11 - Take Me By The Hand.wav" WAVE
  TRACK 11 AUDIO
    TITLE "Take Me By The Hand"
    PERFORMER "Lisa Miskovsky"
    INDEX 01 00:00:00
  TRACK 12 AUDIO
    TITLE "Back To Stoneberry Road"
    PERFORMER "Lisa Miskovsky"
    INDEX 00 03:54:54
FILE "12 - Back To Stoneberry Road.wav" WAVE
    INDEX 01 00:00:00
Цитата:
Цитата:
"Источник: what.cd (релизер farmor)".
[/spoiler]
Правила, инструкции, FAQ!!!
Торрент  Добавлен [26 мар 2019, 20:13] Скачать торрент Магнет ссылка
Скачать торрент
[ Размер 14.11 КБ / Просмотров 0 ]

Статус
Проверен 
 
Размер  328.92 МБ
Приватный: Нет (DHT включён)
.torrent скачан  0
 


     Отправить личное сообщение
   
Страница 1 из 1
Показать сообщения за:  Поле сортировки  
Начать новую тему Ответить на тему


Сейчас этот форум просматривают: нет зарегистрированных пользователей и гости: 0


Вы не можете начинать темы
Вы не можете отвечать на сообщения
Вы не можете редактировать свои сообщения
Вы не можете удалять свои сообщения
Вы не можете добавлять вложения

Перейти:  
cron