Начать новую тему Ответить на тему
Статистика раздачи
Размер: 348.91 МБ | Добавлен: 26 мар 2019, 20:45 | Скачали: 0
Сидеров: 0  [0 байт/сек]    Личеров: 0  [0 байт/сек]
Пред. тема | След. тема 

Автор
Сообщение

СообщениеДобавлено: 26 мар 2019, 20:45 

Ответить с цитатой 

Letu Stuke (Letu Štuke) / Proteini i ugljikohidrati
Жанр: YU-Soft-Rock
Страна-производитель диска: Сербия
Год издания диска: 2008
Издатель (лейбл): GORATON
Номер по каталогу: CD 083
Страна: Босния и Герцеговина, Сараево
Аудио кодек: FLAC (*.flac)
Тип рипа: image+.cue
Битрейт аудио: lossless
Продолжительность: 47:54
Источник (релизер): Drgar
Наличие сканов в раздаче: да
Треклист:
01. Paranoja (3:11)
02. Glava u oblacima (4:08)
03. Proteini i ugljikohidrati (3:42)
04. Sami (4:48)
05. Poljubi je dok spava (feat. Remi) (4:28)
06. F.G.R. (3:17)
07. Muzika (4:02)
08. Bella donna (5:03)
09. Psycho (2:44)
10. Tesla (4:46)
11. Mali (3:56)
12. Nekad kad Pozelim (3:49)
Код:
Exact Audio Copy V0.99 prebeta 4 from 23. January 2008
EAC extraction logfile from 1. June 2009, 18:34
Letu Stuke / Proteini i ugljikohidrati
Used drive  : Optiarc DVD RW AD-7170S   Adapter: 0  ID: 0
Read mode               : Secure
Utilize accurate stream : Yes
Defeat audio cache      : Yes
Make use of C2 pointers : No
Read offset correction                      : 48
Overread into Lead-In and Lead-Out          : No
Fill up missing offset samples with silence : Yes
Delete leading and trailing silent blocks   : No
Null samples used in CRC calculations       : Yes
Used interface                              : Installed external ASPI interface
Used output format : Internal WAV Routines
Sample format      : 44.100 Hz; 16 Bit; Stereo
TOC of the extracted CD
     Track |   Start  |  Length  | Start sector | End sector
    ---------------------------------------------------------
        1  |  0:00.00 |  3:10.58 |         0    |    14307
        2  |  3:10.58 |  4:07.52 |     14308    |    32884
        3  |  7:18.35 |  3:42.15 |     32885    |    49549
        4  | 11:00.50 |  4:48.27 |     49550    |    71176
        5  | 15:49.02 |  4:28.09 |     71177    |    91285
        6  | 20:17.11 |  3:16.56 |     91286    |   106041
        7  | 23:33.67 |  4:01.60 |    106042    |   124176
        8  | 27:35.52 |  5:03.09 |    124177    |   146910
        9  | 32:38.61 |  2:44.18 |    146911    |   159228
       10  | 35:23.04 |  4:45.68 |    159229    |   180671
       11  | 40:08.72 |  3:56.17 |    180672    |   198388
       12  | 44:05.14 |  3:49.19 |    198389    |   215582
Range status and errors
Selected range
     Filename E:\Letu Stuke - Proteini i ugljikohidrati.wav
     Peak level 98.1 %
     Range quality 100.0 %
     Copy CRC 1E76F70A
     Copy OK
No errors occurred
AccurateRip summary
Track  1  not present in database
Track  2  not present in database
Track  3  not present in database
Track  4  not present in database
Track  5  not present in database
Track  6  not present in database
Track  7  not present in database
Track  8  not present in database
Track  9  not present in database
Track 10  not present in database
Track 11  not present in database
Track 12  not present in database
None of the tracks are present in the AccurateRip database
End of status report
Правила, инструкции, FAQ!!!
Торрент  Добавлен [26 мар 2019, 20:45] Скачать торрент Магнет ссылка
Скачать торрент
[ Размер 14.83 КБ / Просмотров 0 ]

Статус
Проверен 
 
Размер  348.91 МБ
Приватный: Нет (DHT включён)
.torrent скачан  0
 


     Отправить личное сообщение
   
Страница 1 из 1
Показать сообщения за:  Поле сортировки  
Начать новую тему Ответить на тему


Сейчас этот форум просматривают: нет зарегистрированных пользователей и гости: 0


Вы не можете начинать темы
Вы не можете отвечать на сообщения
Вы не можете редактировать свои сообщения
Вы не можете удалять свои сообщения
Вы не можете добавлять вложения

Перейти:  
cron