Начать новую тему Ответить на тему
Статистика раздачи
Размер: 129.95 МБ | Добавлен: 26 мар 2019, 20:47 | Скачали: 0
Сидеров: 0  [0 байт/сек]    Личеров: 0  [0 байт/сек]
Пред. тема | След. тема 

Автор
Сообщение

СообщениеДобавлено: 26 мар 2019, 20:47 

Ответить с цитатой 

Rachael Yamagata / Live At The Loft & More [EP]


Жанр: Soft Rock/ Indie/ Acoustic/ Piano
Страна-производитель диска: US
Год издания: 2005
Издатель (лейбл): RCA
Страна: US
Аудиокодек: FLAC (*.flac)
Тип рипа: tracks+.cue
Битрейт аудио: lossless
Продолжительность: 25:13
Источник (релизер): losslessclub
Треклист:
01. Be Be Your Love (live at The Loft) – 4:44
02. These Girls/Would You Please (live at The Loft) – 10:39
03. Reason Why (live at The Loft) – 5:25
04. River – 4:25
Код:
Exact Audio Copy V0.99 prebeta 4 from 23. January 2008
EAC extraction logfile from 8. November 2008, 19:50
Rachael Yamagata / Live At The Loft & More
Used drive  : TSSTcorpCDDVDW SN-S082H   Adapter: 0  ID: 0
Read mode               : Secure
Utilize accurate stream : Yes
Defeat audio cache      : Yes
Make use of C2 pointers : No
Read offset correction                      : 6
Overread into Lead-In and Lead-Out          : No
Fill up missing offset samples with silence : Yes
Delete leading and trailing silent blocks   : No
Null samples used in CRC calculations       : Yes
Used interface                              : Native Win32 interface for Win NT & 2000
Gap handling                                : Appended to previous track
Used output format              : User Defined Encoder
Selected bitrate                : 128 kBit/s
Quality                         : High
Add ID3 tag                     : No
Command line compressor         : C:\Program Files\FLAC\flac.exe
Additional command line options : -V -8 -T "artist=%a" -T "title=%t" -T "album=%g" -T "date=%y" -T "tracknumber=%n" -T "genre=%m" %s
TOC of the extracted CD
     Track |   Start  |  Length  | Start sector | End sector
    ---------------------------------------------------------
        1  |  0:00.00 |  4:44.63 |         0    |    21362
        2  |  4:44.63 | 10:39.62 |     21363    |    69349
        3  | 15:24.50 |  5:25.30 |     69350    |    93754
        4  | 20:50.05 |  4:23.20 |     93755    |   113499
        5  | 27:45.25 |  0:20.50 |    124900    |   126449
Track  1
     Filename E:\music\Rachael Yamagata\Live At The Loft & More\01 - Rachael Yamagata - Be Be Your Love.wav
     Pre-gap length  0:00:02.00
     Peak level 100.0 %
     Track quality 100.0 %
     Test CRC B8F7E0BC
     Copy CRC B8F7E0BC
     Copy OK
Track  2
     Filename E:\music\Rachael Yamagata\Live At The Loft & More\02 - Rachael Yamagata - These Girls , Would You Please.wav
     Pre-gap length  0:00:01.15
     Peak level 100.0 %
     Track quality 100.0 %
     Test CRC 1B205448
     Copy CRC 1B205448
     Copy OK
Track  3
     Filename E:\music\Rachael Yamagata\Live At The Loft & More\03 - Rachael Yamagata - Reason Why.wav
     Pre-gap length  0:00:01.25
     Peak level 99.0 %
     Track quality 99.9 %
     Test CRC 5B591EF0
     Copy CRC 5B591EF0
     Copy OK
Track  4
     Filename E:\music\Rachael Yamagata\Live At The Loft & More\04 - Rachael Yamagata - River.wav
     Pre-gap length  0:00:02.17
     Peak level 99.8 %
     Track quality 100.0 %
     Test CRC 59212594
     Copy CRC 59212594
     Copy OK
No errors occurred
End of status report
Код:
REM GENRE Folk/Rock
REM DATE 2004
REM DISCID 41069605
REM COMMENT "ExactAudioCopy v0.99pb4"
PERFORMER "Rachael Yamagata"
TITLE "Live At The Loft & More"
FILE "Rachael Yamagata\Live At The Loft & More\01 - Rachael Yamagata - Be Be Your Love.wav" WAVE
  TRACK 01 AUDIO
    TITLE "Be Be Your Love"
    PERFORMER "Rachael Yamagata"
    INDEX 01 00:00:00
FILE "Rachael Yamagata\Live At The Loft & More\02 - Rachael Yamagata - These Girls , Would You Please.wav" WAVE
  TRACK 02 AUDIO
    TITLE "These Girls / Would You Please"
    PERFORMER "Rachael Yamagata"
    PREGAP 00:01:15
    INDEX 01 00:00:00
FILE "Rachael Yamagata\Live At The Loft & More\03 - Rachael Yamagata - Reason Why.wav" WAVE
  TRACK 03 AUDIO
    TITLE "Reason Why"
    PERFORMER "Rachael Yamagata"
    PREGAP 00:01:25
    INDEX 01 00:00:00
FILE "Rachael Yamagata\Live At The Loft & More\04 - Rachael Yamagata - River.wav" WAVE
  TRACK 04 AUDIO
    TITLE "River"
    PERFORMER "Rachael Yamagata"
    PREGAP 00:02:17
    INDEX 01 00:00:00
Правила, инструкции, FAQ!!!
Торрент  Добавлен [26 мар 2019, 20:47] Скачать торрент Магнет ссылка
Скачать торрент
[ Размер 11.07 КБ / Просмотров 0 ]

Статус
Проверен 
 
Размер  129.95 МБ
Приватный: Нет (DHT включён)
.torrent скачан  0
 


     Отправить личное сообщение
   
Страница 1 из 1
Показать сообщения за:  Поле сортировки  
Начать новую тему Ответить на тему


Сейчас этот форум просматривают: нет зарегистрированных пользователей и гости: 0


Вы не можете начинать темы
Вы не можете отвечать на сообщения
Вы не можете редактировать свои сообщения
Вы не можете удалять свои сообщения
Вы не можете добавлять вложения

Перейти:  
cron