Начать новую тему Ответить на тему
Статистика раздачи
Размер: 238.45 МБ | Добавлен: 28 апр 2020, 19:55 | Скачали: 0
Сидеров: 0  [0 байт/сек]    Личеров: 0  [0 байт/сек]
Пред. тема | След. тема 

Автор
Сообщение

СообщениеДобавлено: 28 апр 2020, 19:55 

Ответить с цитатой 


Arik Einstein, Miki Gavrielov - At Avigdor's Grass - 1971 (1990, Phonokol CD 008)

Жанр: Soft Rock, Folk Rock, Psychedelic Rock, Classic Rock
Носитель: CD (album, reissue)
Страна-производитель диска (релиза): Israel
Год издания оригинала: 1971
Год переиздания: 1990, возможно, более поздняя допечатка
Издатель (лейбл): Phonokol
Номер по каталогу: CD 008
Страна исполнителя (группы) : Israel
Аудио кодек: FLAC (*.flac)
Тип рипа: (tracks + .cue)
Битрейт аудио: lossless
Корректность рипа: несовпадение CRC, дефектов звучания не слышно
Наличие сканов в содержимом раздачи: full scans, 300 dpi
Продолжительность: 35:46
Источник (релизер): Моя коллекция, мой рип
Трэклист:
1. Song No. 8 = שיר מספר שמונה (4:08)
2. You And Me = אני ואתה (3:29)
3. Turkish Coffee = קפה טורקי (3:42)
4. I See Her Walking = אני רואה אותה בדרך לגימנסיה (3:03)
5. Whistling In The Dark = לשרוק בחושך (4:34)
6. I'm Sleepy = אני אוהב לישון (3:08)
7. She Will Come = היא תבוא (3:06)
8. Get Out Of It = צא מזה (2:53)
9. Youth Movement = השריקה של התנועה (4:00)
10. I Understand = אני מבין (3:12)
Код:
Exact Audio Copy V1.3 from 2. September 2016
EAC extraction logfile from 22. April 2020, 12:22
אריק איינשטיין / בדשא אצל אביגדור
Used drive  : TS8XDVDSTRANSCEND   Adapter: 1  ID: 1
Read mode               : Secure
Utilize accurate stream : Yes
Defeat audio cache      : Yes
Make use of C2 pointers : No
Read offset correction                      : 6
Overread into Lead-In and Lead-Out          : No
Fill up missing offset samples with silence : Yes
Delete leading and trailing silent blocks   : No
Null samples used in CRC calculations       : Yes
Used interface                              : Native Win32 interface for Win NT & 2000
Gap handling                                : Appended to previous track
Used output format              : User Defined Encoder
Selected bitrate                : 1024 kBit/s
Quality                         : High
Add ID3 tag                     : No
Command line compressor         : C:\Program Files (x86)\Exact Audio Copy\FLAC\FLAC.EXE
Additional command line options : -V -8 -T "ARTIST=%artist%" -T "TITLE=%title%" -T "ALBUM=%albumtitle%" -T "DATE=%year%" -T "TRACKNUMBER=%tracknr%" -T "GENRE=%genre%" %source%
TOC of the extracted CD
     Track |   Start  |  Length  | Start sector | End sector
    ---------------------------------------------------------
        1  |  0:00.13 |  4:11.62 |        13    |    18899
        2  |  4:12.00 |  3:32.00 |     18900    |    34799
        3  |  7:44.00 |  3:46.00 |     34800    |    51749
        4  | 11:30.00 |  3:06.00 |     51750    |    65699
        5  | 14:36.00 |  4:38.00 |     65700    |    86549
        6  | 19:14.00 |  3:11.00 |     86550    |   100874
        7  | 22:25.00 |  3:10.00 |    100875    |   115124
        8  | 25:35.00 |  2:56.00 |    115125    |   128324
        9  | 28:31.00 |  4:03.00 |    128325    |   146549
       10  | 32:34.00 |  3:12.13 |    146550    |   160962
Track  1
     Filename D:\Music\Musicgate's rips\אריק איינשטיין ומיקי גבריאלוב - בדשא אצל אביגדור - (1990) 1971\01. שיר מספר 8.wav
     Pre-gap length  0:00:02.13
     Peak level 94.1 %
     Extraction speed 1.1 X
     Track quality 100.0 %
     Test CRC 70633B9C
     Copy CRC 70633B9C
     Cannot be verified as accurate (confidence 4)  [16E54A69], AccurateRip returned [5F0B0206]  (AR v2)
     Copy OK
Track  2
     Filename D:\Music\Musicgate's rips\אריק איינשטיין ומיקי גבריאלוב - בדשא אצל אביגדור - (1990) 1971\02. אני ואתה.wav
     Pre-gap length  0:00:02.62
     Peak level 100.0 %
     Extraction speed 1.2 X
     Track quality 100.0 %
     Test CRC 2062457A
     Copy CRC 2062457A
     Cannot be verified as accurate (confidence 4)  [7A0E8C31], AccurateRip returned [4DC1E228]  (AR v2)
     Copy OK
Track  3
     Filename D:\Music\Musicgate's rips\אריק איינשטיין ומיקי גבריאלוב - בדשא אצל אביגדור - (1990) 1971\03. קפה טורקי.wav
     Pre-gap length  0:00:02.62
     Peak level 93.5 %
     Extraction speed 1.4 X
     Track quality 100.0 %
     Test CRC E6B208FA
     Copy CRC E6B208FA
     Cannot be verified as accurate (confidence 4)  [84590CB3], AccurateRip returned [5A2F0760]  (AR v2)
     Copy OK
Track  4
     Filename D:\Music\Musicgate's rips\אריק איינשטיין ומיקי גבריאלוב - בדשא אצל אביגדור - (1990) 1971\04. אני רואה אותה בדרך לגימנסיה.wav
     Pre-gap length  0:00:03.62
     Peak level 93.4 %
     Extraction speed 1.4 X
     Track quality 100.0 %
     Test CRC 47319225
     Copy CRC 47319225
     Cannot be verified as accurate (confidence 4)  [A782DB3D], AccurateRip returned [36FE5B23]  (AR v2)
     Copy OK
Track  5
     Filename D:\Music\Musicgate's rips\אריק איינשטיין ומיקי גבריאלוב - בדשא אצל אביגדור - (1990) 1971\05. לשרוק בחושך.wav
     Pre-gap length  0:00:02.62
     Peak level 93.4 %
     Extraction speed 1.6 X
     Track quality 100.0 %
     Test CRC C9A8CA73
     Copy CRC C9A8CA73
     Cannot be verified as accurate (confidence 4)  [B2D95AD7], AccurateRip returned [2846A8EF]  (AR v2)
     Copy OK
Track  6
     Filename D:\Music\Musicgate's rips\אריק איינשטיין ומיקי גבריאלוב - בדשא אצל אביגדור - (1990) 1971\06. אני אוהב לישון.wav
     Pre-gap length  0:00:03.62
     Peak level 88.4 %
     Extraction speed 1.6 X
     Track quality 100.0 %
     Test CRC 2834F568
     Copy CRC 2834F568
     Cannot be verified as accurate (confidence 4)  [3348C62B], AccurateRip returned [26103427]  (AR v2)
     Copy OK
Track  7
     Filename D:\Music\Musicgate's rips\אריק איינשטיין ומיקי גבריאלוב - בדשא אצל אביגדור - (1990) 1971\07. היא תבוא.wav
     Pre-gap length  0:00:02.62
     Peak level 93.4 %
     Extraction speed 1.4 X
     Track quality 99.9 %
     Test CRC BD4CD9E9
     Copy CRC BD4CD9E9
     Cannot be verified as accurate (confidence 4)  [1B892E7C], AccurateRip returned [E1298B60]  (AR v2)
     Copy OK
Track  8
     Filename D:\Music\Musicgate's rips\אריק איינשטיין ומיקי גבריאלוב - בדשא אצל אביגדור - (1990) 1971\08. צא מזה.wav
     Pre-gap length  0:00:03.62
     Peak level 93.6 %
     Extraction speed 0.6 X
     Track quality 99.5 %
     Test CRC CBEFF217
     Copy CRC 9D0DC49C
     Cannot be verified as accurate (confidence 4)  [A4D482FD], AccurateRip returned [EF9F14FB]  (AR v2)
     Copy OK
Track  9
     Filename D:\Music\Musicgate's rips\אריק איינשטיין ומיקי גבריאלוב - בדשא אצל אביגדור - (1990) 1971\09. השריקה של התנועה.wav
     Pre-gap length  0:00:02.62
     Suspicious position 0:03:56
     Peak level 93.3 %
     Extraction speed 0.4 X
     Track quality 99.2 %
     Test CRC 60F17B07
     Copy CRC EE8FF4D5
     Cannot be verified as accurate (confidence 3)  [9A9390B4], AccurateRip returned [31D72BDC]  (AR v2)
     Copy finished
Track 10
     Filename D:\Music\Musicgate's rips\אריק איינשטיין ומיקי גבריאלוב - בדשא אצל אביגדור - (1990) 1971\10. אני מבין.wav
     Pre-gap length  0:00:02.61
     Peak level 93.3 %
     Extraction speed 0.3 X
     Track quality 99.1 %
     Test CRC 24865FC3
     Copy CRC 3C3AF8C0
     Cannot be verified as accurate (confidence 3)  [ED48809B], AccurateRip returned [1F056A40]  (AR v2)
     Copy OK
No tracks could be verified as accurate
There were errors
End of status report
---- CUETools DB Plugin V2.1.6
[CTDB TOCID: EUH5gM1uDfRP.cACwTz2k_YrQY0-] found
Submit result: insufficient quality
Track | CTDB Status
  1   | (15/15) Accurately ripped
  2   | (15/15) Accurately ripped
  3   | (15/15) Accurately ripped
  4   | (15/15) Accurately ripped
  5   | (15/15) Accurately ripped
  6   | (15/15) Accurately ripped
  7   | ( 0/15) No match
  8   | ( 0/15) No match
  9   | ( 0/15) No match
 10   | ( 0/15) No match
==== Log checksum 84F7A7E994B547D7493D99E683B149FCAB86E6556348EA6EBAEAE146660A8757 ====
Код:
REM GENRE Hebrew
REM DATE 1990
REM DISCID 9208620A
REM COMMENT "ExactAudioCopy v1.3"
PERFORMER "אריק איינשטיין ומיקי גבריאלוב"
TITLE "בדשא אצל אביגדור"
REM COMPOSER ""
FILE "01. שיר מספר 8.wav" WAVE
  TRACK 01 AUDIO
    TITLE "שיר מספר 8"
    PERFORMER "אריק איינשטיין ומיקי גבריאלוב"
    REM COMPOSER ""
    PREGAP 00:00:13
    INDEX 01 00:00:00
  TRACK 02 AUDIO
    TITLE "אני ואתה"
    PERFORMER "אריק איינשטיין ומיקי גבריאלוב"
    REM COMPOSER ""
    INDEX 00 04:09:00
FILE "02. אני ואתה.wav" WAVE
    INDEX 01 00:00:00
  TRACK 03 AUDIO
    TITLE "קפה טורקי"
    PERFORMER "אריק איינשטיין ומיקי גבריאלוב"
    REM COMPOSER ""
    INDEX 00 03:29:13
FILE "03. קפה טורקי.wav" WAVE
    INDEX 01 00:00:00
  TRACK 04 AUDIO
    TITLE "אני רואה אותה בדרך לגימנסיה"
    PERFORMER "אריק איינשטיין ומיקי גבריאלוב"
    REM COMPOSER ""
    INDEX 00 03:42:13
FILE "04. אני רואה אותה בדרך לגימנסיה.wav" WAVE
    INDEX 01 00:00:00
  TRACK 05 AUDIO
    TITLE "לשרוק בחושך"
    PERFORMER "אריק איינשטיין ומיקי גבריאלוב"
    REM COMPOSER ""
    INDEX 00 03:03:13
FILE "05. לשרוק בחושך.wav" WAVE
    INDEX 01 00:00:00
  TRACK 06 AUDIO
    TITLE "אני אוהב לישון"
    PERFORMER "אריק איינשטיין ומיקי גבריאלוב"
    REM COMPOSER ""
    INDEX 00 04:34:13
FILE "06. אני אוהב לישון.wav" WAVE
    INDEX 01 00:00:00
  TRACK 07 AUDIO
    TITLE "היא תבוא"
    PERFORMER "אריק איינשטיין ומיקי גבריאלוב"
    REM COMPOSER ""
    INDEX 00 03:08:13
FILE "07. היא תבוא.wav" WAVE
    INDEX 01 00:00:00
  TRACK 08 AUDIO
    TITLE "צא מזה"
    PERFORMER "אריק איינשטיין ומיקי גבריאלוב"
    REM COMPOSER ""
    INDEX 00 03:06:13
FILE "08. צא מזה.wav" WAVE
    INDEX 01 00:00:00
  TRACK 09 AUDIO
    TITLE "השריקה של התנועה"
    PERFORMER "אריק איינשטיין ומיקי גבריאלוב"
    REM COMPOSER ""
    INDEX 00 02:53:13
FILE "09. השריקה של התנועה.wav" WAVE
    INDEX 01 00:00:00
  TRACK 10 AUDIO
    TITLE "אני מבין"
    PERFORMER "אריק איינשטיין ומיקי גבריאלוב"
    REM COMPOSER ""
    INDEX 00 04:00:14
FILE "10. אני מבין.wav" WAVE
    INDEX 01 00:00:00
Код:
[CUETools log; Date: 26.04.2020 6:30:12; Version: 2.1.5]
Pregap length 00:00:13.
[CTDB TOCID: EUH5gM1uDfRP.cACwTz2k_YrQY0-] found.
Track | CTDB Status
  1   | (15/15) Accurately ripped
  2   | (15/15) Accurately ripped
  3   | (15/15) Accurately ripped
  4   | (15/15) Accurately ripped
  5   | (15/15) Accurately ripped
  6   | (15/15) Accurately ripped
  7   | ( 0/15) No match
  8   | ( 0/15) No match
  9   | ( 0/15) No match
 10   | ( 0/15) No match
[AccurateRip ID: 000de0ef-006e1834-9208620a] found.
Track   [  CRC   |   V2   ] Status
 01     [779f197c|16e54a69] (0+0/6) No match
 02     [961928f9|7a0e8c31] (0+0/6) No match
 03     [03b88679|84590cb3] (0+0/6) No match
 04     [36841e9f|a782db3d] (0+0/6) No match
 05     [b673ae2e|b2d95ad7] (0+0/6) No match
 06     [3a33d7e3|3348c62b] (0+0/6) No match
 07     [852e2188|1b892e7c] (0+0/6) No match
 08     [8462ffe2|a4d482fd] (0+0/6) No match
 09     [bf845889|9a9390b4] (0+0/5) No match
 10     [ca30c526|ed48809b] (0+0/5) No match
Offsetted by -652:
 01     [a76430b0] (0/6) No match (V2 was not tested)
 02     [a14a8c09] (0/6) No match (V2 was not tested)
 03     [94621001] (0/6) No match (V2 was not tested)
 04     [d3bd5cb3] (0/6) No match (V2 was not tested)
 05     [e15d79f2] (0/6) No match (V2 was not tested)
 06     [152ba0cf] (0/6) No match (V2 was not tested)
 07     [fa55912c] (0/6) No match (V2 was not tested)
 08     [84c2b14a] (0/6) No match (V2 was not tested)
 09     [ce07880d] (0/5) No match (V2 was not tested)
 10     [eefa0d96] (0/5) No match (V2 was not tested)
Offsetted by 12:
 01     [c3b307c8] (0/6) No match (V2 was not tested)
 02     [6d0ed3e9] (0/6) No match (V2 was not tested)
 03     [dcef83f1] (0/6) No match (V2 was not tested)
 04     [c8d32a0b] (0/6) No match (V2 was not tested)
 05     [302a45ea] (0/6) No match (V2 was not tested)
 06     [2fe3e577] (0/6) No match (V2 was not tested)
 07     [11f1b964] (0/6) No match (V2 was not tested)
 08     [9739f97a] (0/6) No match (V2 was not tested)
 09     [7bb75485] (0/5) No match (V2 was not tested)
 10     [312b7eb6] (0/5) No match (V2 was not tested)
Offsetted by 676:
 01     [e001dee0] (2/6) Accurately ripped
 02     [38d31bc9] (2/6) Accurately ripped
 03     [257cf7e1] (2/6) Accurately ripped
 04     [bde8f763] (2/6) Accurately ripped
 05     [7ef711e2] (2/6) Accurately ripped
 06     [4a9c2a1f] (2/6) Accurately ripped
 07     [298de19c] (0/6) No match (V2 was not tested)
 08     [a9b141aa] (0/6) No match (V2 was not tested)
 09     [296720fd] (0/5) No match (V2 was not tested)
 10     [735cefd6] (0/5) No match (V2 was not tested)
Track Peak [ CRC32  ] [W/O NULL] [  LOG   ]
 --  100,0 [28BECA6E] [176E4E37]
 01   94,1 [70633B9C] [EA786F26]   CRC32
 02  100,0 [2062457A] [3600333C]   CRC32
 03   93,5 [E6B208FA] [9C2D9173]   CRC32
 04   93,4 [47319225] [C645BA2F]   CRC32
 05   93,4 [C9A8CA73] [FAC3F77D]   CRC32
 06   88,4 [2834F568] [B987EFFB]   CRC32
 07   93,4 [BD4CD9E9] [901FC4B6]   CRC32
 08   93,6 [9D0DC49C] [119324CC]   CRC32
 09   93,3 [EE8FF4D5] [B35869AF]   CRC32
 10   93,3 [3C3AF8C0] [A1DEFAED]   CRC32
Код:
     Track |   Start  |  Length  | Start sector | End sector
    ---------------------------------------------------------
        1  |  0:00.13 |  4:11.62 |        13    |    18899
        2  |  4:12.00 |  3:32.00 |     18900    |    34799
        3  |  7:44.00 |  3:46.00 |     34800    |    51749
        4  | 11:30.00 |  3:06.00 |     51750    |    65699
        5  | 14:36.00 |  4:38.00 |     65700    |    86549
        6  | 19:14.00 |  3:11.00 |     86550    |   100874
        7  | 22:25.00 |  3:10.00 |    100875    |   115124
        8  | 25:35.00 |  2:56.00 |    115125    |   128324
        9  | 28:31.00 |  4:03.00 |    128325    |   146549
       10  | 32:34.00 |  3:12.13 |    146550    |   160962
Код:
foobar2000 1.3.3 / Dynamic Range Meter 1.1.1
log date: 2020-04-22 18:30:43
--------------------------------------------------------------------------------
Analyzed: אריק איינשטיין ומיקי גבריאלוב / בדשא אצל אביגדור
--------------------------------------------------------------------------------
DR         Peak         RMS     Duration Track
--------------------------------------------------------------------------------
DR9       -0.53 dB   -11.50 dB      4:12 01-שיר מספר 8
DR10       0.00 dB   -12.33 dB      3:32 02-אני ואתה
DR12      -0.58 dB   -14.06 dB      3:46 03-קפה טורקי
DR10      -0.59 dB   -12.62 dB      3:06 04-אני רואה אותה בדרך לגימנסיה
DR10      -0.59 dB   -13.49 dB      4:38 05-לשרוק בחושך
DR11      -1.07 dB   -13.95 dB      3:11 06-אני אוהב לישון
DR11      -0.58 dB   -14.23 dB      3:10 07-היא תבוא
DR10      -0.57 dB   -11.75 dB      2:56 08-צא מזה
DR11      -0.59 dB   -13.98 dB      4:03 09-השריקה של התנועה
DR10      -0.60 dB   -11.47 dB      3:12 10-אני מבין
--------------------------------------------------------------------------------
Number of tracks:  10
Official DR value: DR10
Samplerate:        44100 Hz
Channels:          2
Bits per sample:   16
Bitrate:           951 kbps
Codec:             FLAC
================================================================================

Acoustic Guitar – Miki Gavrielov
Arranged By – Miki Gavrielov
Bass Guitar – Miki Gavrielov
Congas – Aharon Kaminsky
Drums – Ami Traibetsh
Lead Guitar – Haim Romano
Piano – David Kribushey

Если нет сидов - пришлите мне ЛС
Правила, инструкции, FAQ!!!
Торрент  Добавлен [28 апр 2020, 19:55] Скачать торрент Магнет ссылка
Скачать торрент
[ Размер 20.36 КБ / Просмотров 6 ]

Статус
Проверен 
 
Размер  238.45 МБ
Приватный: Нет (DHT включён)
.torrent скачан  0
 


     Отправить личное сообщение
   
Страница 1 из 1
Показать сообщения за:  Поле сортировки  
Начать новую тему Ответить на тему


Сейчас этот форум просматривают: нет зарегистрированных пользователей и гости: 0


Вы не можете начинать темы
Вы не можете отвечать на сообщения
Вы не можете редактировать свои сообщения
Вы не можете удалять свои сообщения
Вы не можете добавлять вложения

Перейти:  
cron