Начать новую тему Ответить на тему
Статистика раздачи
Размер: 254.14 МБ | Добавлен: 26 мар 2019, 18:53 | Скачали: 0
Сидеров: 0  [0 байт/сек]    Личеров: 0  [0 байт/сек]
Пред. тема | След. тема 

Автор
Сообщение

СообщениеДобавлено: 26 мар 2019, 18:53 

Ответить с цитатой 



Enest - My Silent Past - 2015

Жанр: Soft-rock, Electroacoustic, Indie, Jazzy, Singer-songwriter
Носитель: CD
Страна-производитель диска (релиза): Israel
Год издания оригинала: 2015
Издатель (лейбл): Self released
Страна исполнителя (группы) : Israel
Дата / место записи: at the Kicha Studios & at Avichai Tuchman’s studio, TLV Israel
Аудио кодек: FLAC (*.flac)
Тип рипа: (tracks + .cue)
Битрейт аудио: lossless
Наличие сканов в содержимом раздачи: full scans, png, 300 dpi
Продолжительность: 32:14
Источник (релизер): Моя коллекция, мой рип
Трэклист:
1. Light & Clear 03:54
2. Back To The Circle 03:14
3. My Silent Past 03:15
4. Simple Joy 03:32
5. Disharmonized 02:46
6. Breathing 03:26
7. My Secret 03:19
8. Keeping Watch 04:14
9. The Door 04:14
All music and lyrics by ENEST
Except: ‘Keeping Watch’ - lyrics by the Sufi poet Hafiz, translated by Daniel Ladinsky & ‘My Silent Past’ - chorus lyrics by the Sufi teacher Hazarat Inayyat Khan (translation unknown)
All strings arrangement by ENEST
Music production: Avichai Tuchman & ENEST
Код:
Exact Audio Copy V1.3 from 2. September 2016
EAC extraction logfile from 1. June 2017, 9:13
Enest / My Silent Past
Used drive  : HL-DT-STDVDRAM GH24NSB0   Adapter: 1  ID: 0
Read mode               : Secure
Utilize accurate stream : Yes
Defeat audio cache      : Yes
Make use of C2 pointers : No
Read offset correction                      : 6
Overread into Lead-In and Lead-Out          : No
Fill up missing offset samples with silence : Yes
Delete leading and trailing silent blocks   : No
Null samples used in CRC calculations       : Yes
Used interface                              : Native Win32 interface for Win NT & 2000
Gap handling                                : Appended to previous track
Used output format              : User Defined Encoder
Selected bitrate                : 1024 kBit/s
Quality                         : High
Add ID3 tag                     : No
Command line compressor         : C:\Program Files (x86)\Exact Audio Copy\FLAC\FLAC.EXE
Additional command line options : -V -8 -T "Genre=%genre%" -T "Artist=%artist%" -T "Title=%title%" -T "Album=%albumtitle%" -T "Date=%year%" -T "Tracknumber=%tracknr%" -T "Comment=%comment%" %source%
TOC of the extracted CD
     Track |   Start  |  Length  | Start sector | End sector
    ---------------------------------------------------------
        1  |  0:00.00 |  3:55.46 |         0    |    17670
        2  |  3:55.46 |  3:16.26 |     17671    |    32396
        3  |  7:11.72 |  3:17.26 |     32397    |    47197
        4  | 10:29.23 |  3:35.41 |     47198    |    63363
        5  | 14:04.64 |  2:47.69 |     63364    |    75957
        6  | 16:52.58 |  3:29.16 |     75958    |    91648
        7  | 20:21.74 |  3:21.61 |     91649    |   106784
        8  | 23:43.60 |  4:17.10 |    106785    |   126069
        9  | 28:00.70 |  4:14.18 |    126070    |   145137
Track  1
     Filename D:\Music\MG rips\Enest - My Silent Past - 2015\01 - Light & Clear.wav
     Pre-gap length  0:00:02.00
     Peak level 98.9 %
     Extraction speed 1.0 X
     Track quality 100.0 %
     Test CRC 5EB1A7D3
     Copy CRC 5EB1A7D3
     Track not present in AccurateRip database
     Copy OK
Track  2
     Filename D:\Music\MG rips\Enest - My Silent Past - 2015\02 - Back To The Circle.wav
     Pre-gap length  0:00:01.20
     Peak level 96.7 %
     Extraction speed 1.1 X
     Track quality 100.0 %
     Test CRC 0397FE30
     Copy CRC 0397FE30
     Track not present in AccurateRip database
     Copy OK
Track  3
     Filename D:\Music\MG rips\Enest - My Silent Past - 2015\03 - My Silent Past.wav
     Pre-gap length  0:00:02.14
     Peak level 98.9 %
     Extraction speed 1.2 X
     Track quality 100.0 %
     Test CRC E20F8609
     Copy CRC E20F8609
     Track not present in AccurateRip database
     Copy OK
Track  4
     Filename D:\Music\MG rips\Enest - My Silent Past - 2015\04 - Simple Joy.wav
     Pre-gap length  0:00:02.18
     Peak level 98.8 %
     Extraction speed 1.3 X
     Track quality 100.0 %
     Test CRC 16F1BC9A
     Copy CRC 16F1BC9A
     Track not present in AccurateRip database
     Copy OK
Track  5
     Filename D:\Music\MG rips\Enest - My Silent Past - 2015\05 - Disharmonized.wav
     Pre-gap length  0:00:03.06
     Peak level 98.9 %
     Extraction speed 1.3 X
     Track quality 100.0 %
     Test CRC 764CEF7D
     Copy CRC 764CEF7D
     Track not present in AccurateRip database
     Copy OK
Track  6
     Filename D:\Music\MG rips\Enest - My Silent Past - 2015\06 - Breathing.wav
     Pre-gap length  0:00:01.67
     Peak level 98.9 %
     Extraction speed 1.4 X
     Track quality 100.0 %
     Test CRC 517F011E
     Copy CRC 517F011E
     Track not present in AccurateRip database
     Copy OK
Track  7
     Filename D:\Music\MG rips\Enest - My Silent Past - 2015\07 - My Secret.wav
     Pre-gap length  0:00:02.26
     Peak level 98.9 %
     Extraction speed 1.3 X
     Track quality 99.9 %
     Test CRC 42455FFE
     Copy CRC 42455FFE
     Track not present in AccurateRip database
     Copy OK
Track  8
     Filename D:\Music\MG rips\Enest - My Silent Past - 2015\08 - Keeping Watch.wav
     Pre-gap length  0:00:02.08
     Peak level 98.9 %
     Extraction speed 1.6 X
     Track quality 100.0 %
     Test CRC FB315633
     Copy CRC FB315633
     Track not present in AccurateRip database
     Copy OK
Track  9
     Filename D:\Music\MG rips\Enest - My Silent Past - 2015\09 - The Door.wav
     Pre-gap length  0:00:02.29
     Peak level 98.9 %
     Extraction speed 1.7 X
     Track quality 100.0 %
     Test CRC AF33CFE1
     Copy CRC AF33CFE1
     Track not present in AccurateRip database
     Copy OK
None of the tracks are present in the AccurateRip database
No errors occurred
End of status report
==== Log checksum B9AE235AA25A79B25F7D22F2941021252AF8A09BD41DD2B27C408EBC4CD1142B ====
Код:
REM GENRE Alternative
REM DATE 2015
REM DISCID 5F078F09
REM COMMENT "ExactAudioCopy v1.3"
PERFORMER "Enest"
TITLE "My Silent Past"
REM COMPOSER ""
FILE "01 - Light & Clear.wav" WAVE
  TRACK 01 AUDIO
    TITLE "Light & Clear"
    PERFORMER "Enest"
    REM COMPOSER ""
    ISRC IL6331400001
    FLAGS DCP
    INDEX 01 00:00:00
  TRACK 02 AUDIO
    TITLE "Back To The Circle"
    PERFORMER "Enest"
    REM COMPOSER ""
    ISRC IL6331400002
    FLAGS DCP
    INDEX 00 03:54:26
FILE "02 - Back To The Circle.wav" WAVE
    INDEX 01 00:00:00
  TRACK 03 AUDIO
    TITLE "My Silent Past"
    PERFORMER "Enest"
    REM COMPOSER ""
    ISRC IL6331400003
    FLAGS DCP
    INDEX 00 03:14:12
FILE "03 - My Silent Past.wav" WAVE
    INDEX 01 00:00:00
  TRACK 04 AUDIO
    TITLE "Simple Joy"
    PERFORMER "Enest"
    REM COMPOSER ""
    ISRC IL6331400004
    FLAGS DCP
    INDEX 00 03:15:08
FILE "04 - Simple Joy.wav" WAVE
    INDEX 01 00:00:00
  TRACK 05 AUDIO
    TITLE "Disharmonized"
    PERFORMER "Enest"
    REM COMPOSER ""
    ISRC IL6331400005
    FLAGS DCP
    INDEX 00 03:32:35
FILE "05 - Disharmonized.wav" WAVE
    INDEX 01 00:00:00
  TRACK 06 AUDIO
    TITLE "Breathing"
    PERFORMER "Enest"
    REM COMPOSER ""
    ISRC IL6331400006
    FLAGS DCP
    INDEX 00 02:46:02
FILE "06 - Breathing.wav" WAVE
    INDEX 01 00:00:00
  TRACK 07 AUDIO
    TITLE "My Secret"
    PERFORMER "Enest"
    REM COMPOSER ""
    ISRC IL6331400007
    FLAGS DCP
    INDEX 00 03:26:65
FILE "07 - My Secret.wav" WAVE
    INDEX 01 00:00:00
  TRACK 08 AUDIO
    TITLE "Keeping Watch"
    PERFORMER "Enest"
    REM COMPOSER ""
    ISRC IL6331400008
    FLAGS DCP
    INDEX 00 03:19:53
FILE "08 - Keeping Watch.wav" WAVE
    INDEX 01 00:00:00
  TRACK 09 AUDIO
    TITLE "The Door"
    PERFORMER "Enest"
    REM COMPOSER ""
    ISRC IL6331400009
    FLAGS DCP
    INDEX 00 04:14:56
FILE "09 - The Door.wav" WAVE
    INDEX 01 00:00:00

ENEST is a musical artist, producer, singer and flautist. Based in Berlin, originally from Israel, she tours across europe with an electronic solo act, in which she plays Ableton, Keys, Vocals and Flute.
Drawing inspiration from a vast musical range: electro to classical music, Jazz, prog and pop, ENEST creates her own personal sound.
Writing all the lyrics and music, and all strings arrangement, ENEST co-produced her debut LP, "My Silent Past", with an electro-acoustic sound, played by some of Israel's best musicians.
ENEST started her musical path playing the flute while living out in a hut the wild for 4 years, exploring music and nature. From there she went on to her BA in composition and jazz, and then to the studio and stage.
The name ENEST is taken from Orson Scott Card's fiction book "Songmaster", that tells the story of a boy with a gift of a songbird, who was a great singer and ambassador of peace and goodness, that could heal a person with a glimpse and inspire powerful leaders with his voice.
ENEST - vocal, keyboards
Hagai Fershtman - drums
Hod Moshonov - keyboards, synth bass
Tal Govhari, Tomer Moked - guitar
Avishai Tucman - bass. guitar, keyboards
Omer Klien - piano (on 6)
Sunita Staneslo - harp (on 8)
Amit Carmeli - live band production

Правила, инструкции, FAQ!!!
Торрент  Добавлен [26 мар 2019, 18:53] Скачать торрент Магнет ссылка
Скачать торрент
[ Размер 21.3 КБ / Просмотров 2 ]

Статус
Проверен 
 
Размер  254.14 МБ
Приватный: Нет (DHT включён)
.torrent скачан  0
 


     Отправить личное сообщение
   
Страница 1 из 1
Показать сообщения за:  Поле сортировки  
Начать новую тему Ответить на тему


Сейчас этот форум просматривают: нет зарегистрированных пользователей и гости: 0


Вы не можете начинать темы
Вы не можете отвечать на сообщения
Вы не можете редактировать свои сообщения
Вы не можете удалять свои сообщения
Вы не можете добавлять вложения

Перейти:  
cron