Начать новую тему Ответить на тему
Статистика раздачи
Размер: 303.8 МБ | Добавлен: 26 мар 2019, 19:40 | Скачали: 0
Сидеров: 0  [0 байт/сек]    Личеров: 0  [0 байт/сек]
Пред. тема | След. тема 

Автор
Сообщение

СообщениеДобавлено: 26 мар 2019, 19:40 

Ответить с цитатой 

Of Eden (Graham Russell and Katie McGhie) / Feel
Жанр: Soft Rock
Носитель: CD
Страна-производитель диска (релиза): USA
Год издания: 2013
Издатель (лейбл): Of Eden
Номер по каталогу: 700261391298
Страна исполнителя (группы): USA
Аудиокодек: FLAC (*.flac)
Тип рипа: image+.cue
Битрейт аудио: lossless
Продолжительность: 45:36
Источник (релизер): Rob Halford
Наличие сканов в содержимом раздачи: нет
Треклист:
01. I Want To Be With You (3:56)
02. Broken (3:04)
03. Judas (3:41)
04. Let The People Come (3:52)
05. Fiddlestix (4:10)
06. Was It Something I Said (3:54)
07. Cherry Red (3:32)
08. These Are The Days (4:30)
09. Bring A Little Rain (3:34)
10. Feel (3:51)
11. No Mistake (3:57)
12. The Other Side (3:36)
Код:
Exact Audio Copy V1.0 beta 4 from 7. December 2014
EAC extraction logfile from 12. September 2015, 16:27
Of Eden / Feel
Used drive  : HL-DT-STDVDRW  GX40N   Adapter: 1  ID: 1
Read mode               : Secure
Utilize accurate stream : Yes
Defeat audio cache      : Yes
Make use of C2 pointers : No
Read offset correction                      : 6
Overread into Lead-In and Lead-Out          : No
Fill up missing offset samples with silence : Yes
Delete leading and trailing silent blocks   : No
Null samples used in CRC calculations       : Yes
Used interface                              : Native Win32 interface for Win NT & 2000
Used output format : Internal WAV Routines
Sample format      : 44.100 Hz; 16 Bit; Stereo
TOC of the extracted CD
     Track |   Start  |  Length  | Start sector | End sector
    ---------------------------------------------------------
        1  |  0:00.00 |  3:56.23 |         0    |    17722
        2  |  3:56.23 |  3:03.63 |     17723    |    31510
        3  |  7:00.11 |  3:40.59 |     31511    |    48069
        4  | 10:40.70 |  3:51.40 |     48070    |    65434
        5  | 14:32.35 |  4:09.56 |     65435    |    84165
        6  | 18:42.16 |  3:54.12 |     84166    |   101727
        7  | 22:36.28 |  3:31.59 |    101728    |   117611
        8  | 26:08.12 |  4:30.14 |    117612    |   137875
        9  | 30:38.26 |  3:33.72 |    137876    |   153922
       10  | 34:12.23 |  3:51.19 |    153923    |   171266
       11  | 38:03.42 |  3:56.46 |    171267    |   189012
       12  | 42:00.13 |  3:35.47 |    189013    |   205184
Range status and errors
Selected range
     Filename D:\Air Supply - Lossless Discography\2013 - Feel [700261391298]\Of Eden - Feel.wav
     Peak level 100.0 %
     Extraction speed 1.9 X
     Range quality 100.0 %
     Copy CRC 61551A83
     Copy OK
No errors occurred
AccurateRip summary
Track  1  not present in database
Track  2  not present in database
Track  3  not present in database
Track  4  not present in database
Track  5  not present in database
Track  6  not present in database
Track  7  not present in database
Track  8  not present in database
Track  9  not present in database
Track 10  not present in database
Track 11  not present in database
Track 12  not present in database
None of the tracks are present in the AccurateRip database
End of status report
==== Log checksum 10F70CA9FB14F9F633F6E60E0D4C643DB296FAE12E787A2E87D30D0FA5F7136C ====
Код:
REM GENRE "Soft Rock"
REM DATE 2013
REM DISCID 900AAF0C
REM COMMENT "ExactAudioCopy v1.0b4"
PERFORMER "Of Eden"
TITLE "Feel"
FILE "Of Eden - Feel.wav" WAVE
  TRACK 01 AUDIO
    TITLE "I Want To Be With You"
    PERFORMER "Of Eden"
    INDEX 01 00:00:00
  TRACK 02 AUDIO
    TITLE "Broken"
    PERFORMER "Of Eden"
    INDEX 01 03:56:23
  TRACK 03 AUDIO
    TITLE "Judas"
    PERFORMER "Of Eden"
    INDEX 01 07:00:11
  TRACK 04 AUDIO
    TITLE "Let The People Come"
    PERFORMER "Of Eden"
    INDEX 01 10:40:70
  TRACK 05 AUDIO
    TITLE "Fiddlestix"
    PERFORMER "Of Eden"
    INDEX 01 14:32:35
  TRACK 06 AUDIO
    TITLE "Was It Something I Said"
    PERFORMER "Of Eden"
    INDEX 01 18:42:16
  TRACK 07 AUDIO
    TITLE "Cherry Red"
    PERFORMER "Of Eden"
    INDEX 01 22:36:28
  TRACK 08 AUDIO
    TITLE "These Are The Days"
    PERFORMER "Of Eden"
    INDEX 01 26:08:12
  TRACK 09 AUDIO
    TITLE "Bring A Little Rain"
    PERFORMER "Of Eden"
    INDEX 01 30:38:26
  TRACK 10 AUDIO
    TITLE "Feel"
    PERFORMER "Of Eden"
    INDEX 01 34:12:23
  TRACK 11 AUDIO
    TITLE "No Mistake"
    PERFORMER "Of Eden"
    INDEX 01 38:03:42
  TRACK 12 AUDIO
    TITLE "The Other Side"
    PERFORMER "Of Eden"
    INDEX 01 42:00:13
Graham Russell and Katie McGhie
Правила, инструкции, FAQ!!!
Торрент  Добавлен [26 мар 2019, 19:40] Скачать торрент Магнет ссылка
Скачать торрент
[ Размер 12.65 КБ / Просмотров 6 ]

Статус
Проверен 
 
Размер  303.8 МБ
Приватный: Нет (DHT включён)
.torrent скачан  0
 


     Отправить личное сообщение
   
Страница 1 из 1
Показать сообщения за:  Поле сортировки  
Начать новую тему Ответить на тему


Сейчас этот форум просматривают: нет зарегистрированных пользователей и гости: 0


Вы не можете начинать темы
Вы не можете отвечать на сообщения
Вы не можете редактировать свои сообщения
Вы не можете удалять свои сообщения
Вы не можете добавлять вложения

Перейти:  
cron