Начать новую тему Ответить на тему
Статистика раздачи
Размер: 228.62 МБ | Добавлен: 26 мар 2019, 19:18 | Скачали: 0
Сидеров: 0  [0 байт/сек]    Личеров: 0  [0 байт/сек]
Пред. тема | След. тема 

Автор
Сообщение

СообщениеДобавлено: 26 мар 2019, 19:18 

Ответить с цитатой 

Drago Mlinarec / Tako lako
Жанр: Soft Rock
Носитель: CD
Страна-производитель диска: Yugoslavia
Год издания: 1979
Издатель (лейбл): Jugoton
Номер по каталогу: CD 5878704
Страна: Croatia
Аудиокодек: FLAC (*.flac)
Тип рипа: tracks+.cue
Битрейт аудио: lossless
Продолжительность: 00:36:01
Источник (релизер): personal
Наличие сканов в содержимом раздачи: да
Треклист:
1. Tako lako (3:54)
2. Stranac (4:22)
3. Jezera (3:59)
4. Ovce (7:17)
5. Prijatelj (4:06)
6. Vjetar s juga (2:29)
7. San (5:38)
8. Nostalgija (4:16)
Код:
Exact Audio Copy V1.0 beta 3 from 29. August 2011
EAC extraction logfile from 5. April 2014, 23:53
Drago Mlinarec / Tako lako
Used drive  : ATAPI   DVD A  DH20A4P   Adapter: 2  ID: 0
Read mode               : Secure
Utilize accurate stream : Yes
Defeat audio cache      : Yes
Make use of C2 pointers : No
Read offset correction                      : 6
Overread into Lead-In and Lead-Out          : No
Fill up missing offset samples with silence : Yes
Delete leading and trailing silent blocks   : No
Null samples used in CRC calculations       : Yes
Used interface                              : Native Win32 interface for Win NT & 2000
Gap handling                                : Appended to previous track
Used output format              : User Defined Encoder
Selected bitrate                : 896 kBit/s
Quality                         : High
Add ID3 tag                     : No
Command line compressor         : C:\Program Files\Exact Audio Copy\FLAC\FLAC.EXE
Additional command line options : -V -8 -T "Genre=%genre%" -T "Artist=%artist%" -T "Title=%title%" -T "Album=%albumtitle%" -T "Date=%year%" -T "Tracknumber=%tracknr%" -T "Comment=%comment%" %source%
TOC of the extracted CD
     Track |   Start  |  Length  | Start sector | End sector
    ---------------------------------------------------------
        1  |  0:00.00 |  4:05.42 |         0    |    18416
        2  |  4:05.42 |  4:37.26 |     18417    |    39217
        3  |  8:42.68 |  4:12.59 |     39218    |    58176
        4  | 12:55.52 |  7:48.58 |     58177    |    93334
        5  | 20:44.35 |  4:21.49 |     93335    |   112958
        6  | 25:06.09 |  2:38.51 |    112959    |   124859
        7  | 27:44.60 |  5:58.61 |    124860    |   151770
        8  | 33:43.46 |  4:29.48 |    151771    |   171993
Track  1
     Filename D:\Music\Rock, Blues, Pop\Drago Mlinarec - Tako lako - 1979\01 Tako lako.wav
     Pre-gap length  0:00:02.00
     Peak level 98.8 %
     Extraction speed 1.8 X
     Track quality 100.0 %
     Test CRC 7A96B85A
     Copy CRC 7A96B85A
     Accurately ripped (confidence 1)  [E5F02452]  (AR v2)
     Copy OK
Track  2
     Filename D:\Music\Rock, Blues, Pop\Drago Mlinarec - Tako lako - 1979\02 Stranac.wav
     Peak level 98.8 %
     Extraction speed 2.0 X
     Track quality 100.0 %
     Test CRC 4F2C61BC
     Copy CRC 4F2C61BC
     Accurately ripped (confidence 1)  [A8AA7A53]  (AR v2)
     Copy OK
Track  3
     Filename D:\Music\Rock, Blues, Pop\Drago Mlinarec - Tako lako - 1979\03 Jezera.wav
     Peak level 98.8 %
     Extraction speed 2.2 X
     Track quality 100.0 %
     Test CRC B6EA82C9
     Copy CRC B6EA82C9
     Accurately ripped (confidence 1)  [3FD3D82C]  (AR v2)
     Copy OK
Track  4
     Filename D:\Music\Rock, Blues, Pop\Drago Mlinarec - Tako lako - 1979\04 Ovce.wav
     Peak level 98.8 %
     Extraction speed 2.4 X
     Track quality 99.9 %
     Test CRC 6103D764
     Copy CRC 6103D764
     Accurately ripped (confidence 1)  [C0088FA5]  (AR v2)
     Copy OK
Track  5
     Filename D:\Music\Rock, Blues, Pop\Drago Mlinarec - Tako lako - 1979\05 Prijatelj.wav
     Peak level 98.8 %
     Extraction speed 2.7 X
     Track quality 100.0 %
     Test CRC F9A5CBB5
     Copy CRC F9A5CBB5
     Accurately ripped (confidence 1)  [FBDF4DA7]  (AR v2)
     Copy OK
Track  6
     Filename D:\Music\Rock, Blues, Pop\Drago Mlinarec - Tako lako - 1979\06 Vjetar s juga.wav
     Peak level 98.8 %
     Extraction speed 2.0 X
     Track quality 99.9 %
     Test CRC 4E25B509
     Copy CRC 4E25B509
     Accurately ripped (confidence 1)  [E1BDDB6A]  (AR v2)
     Copy OK
Track  7
     Filename D:\Music\Rock, Blues, Pop\Drago Mlinarec - Tako lako - 1979\07 San.wav
     Peak level 97.9 %
     Extraction speed 3.0 X
     Track quality 100.0 %
     Test CRC E70A0ED9
     Copy CRC E70A0ED9
     Accurately ripped (confidence 1)  [A3995158]  (AR v2)
     Copy OK
Track  8
     Filename D:\Music\Rock, Blues, Pop\Drago Mlinarec - Tako lako - 1979\08 Nostalgija.wav
     Peak level 99.4 %
     Extraction speed 3.1 X
     Track quality 100.0 %
     Test CRC F3E8DC37
     Copy CRC F3E8DC37
     Accurately ripped (confidence 1)  [7AD977F7]  (AR v2)
     Copy OK
All tracks accurately ripped
No errors occurred
End of status report
==== Log checksum BA47ABA4FE5BED5230A1A7692859272ED339C7DC0340A5E886CD8E4A6E7D2042 ====
Код:
REM GENRE "Slow Rock"
REM DATE 1979
REM DISCID 6608F508
REM COMMENT "ExactAudioCopy v1.0b3"
PERFORMER "Drago Mlinarec"
TITLE "Tako lako"
FILE "01 Tako lako.flac" WAVE
  TRACK 01 AUDIO
    TITLE "Tako lako"
    PERFORMER "Drago Mlinarec"
    ISRC HRA047950502
    INDEX 01 00:00:00
FILE "02 Stranac.flac" WAVE
  TRACK 02 AUDIO
    TITLE "Stranac"
    PERFORMER "Drago Mlinarec"
    ISRC HRA047955683
    INDEX 01 00:00:00
FILE "03 Jezera.flac" WAVE
  TRACK 03 AUDIO
    TITLE "Jezera"
    PERFORMER "Drago Mlinarec"
    ISRC HRA047961635
    INDEX 01 00:00:00
FILE "04 Ovce.flac" WAVE
  TRACK 04 AUDIO
    TITLE "Ovce"
    PERFORMER "Drago Mlinarec"
    ISRC HRA047961636
    INDEX 01 00:00:00
FILE "05 Prijatelj.flac" WAVE
  TRACK 05 AUDIO
    TITLE "Prijatelj"
    PERFORMER "Drago Mlinarec"
    ISRC HRA047934097
    INDEX 01 00:00:00
FILE "06 Vjetar s juga.flac" WAVE
  TRACK 06 AUDIO
    TITLE "Vjetar s juga"
    PERFORMER "Drago Mlinarec"
    ISRC HRA047934093
    INDEX 01 00:00:00
FILE "07 San.flac" WAVE
  TRACK 07 AUDIO
    TITLE "San"
    PERFORMER "Drago Mlinarec"
    ISRC HRA047934104
    INDEX 01 00:00:00
FILE "08 Nostalgija.flac" WAVE
  TRACK 08 AUDIO
    TITLE "Nostalgija"
    PERFORMER "Drago Mlinarec"
    ISRC HRA047961637
    INDEX 01 00:00:00
Доп. информация: https://www.youtube.com/watch?v=sdBoJ1UC2jU
https://www.youtube.com/watch?v=KX61ItAXjE4
https://www.youtube.com/watch?v=7Zlg9AGE2Lg
- Drago Mlinarec / vocals, acoustic guitar, harmonica
- Tihomir Tinnie Varga / bass, el. and ac. guitars, dobro, Roland guitar synth
- Eduard Matesic / el. and ac. guitars
- Hrvoje Marjanovic / synthesizer
- Gunnar Bylla Bylin / drums
- Lennart Lofberg / vibraphone, percussion
- Henrik Janson / el. guitar
- Patrik Karlsson / bass
- Lars Gunnar Nihlman / Rhodes piano
- Leif Martinsson / drums
- Lili Gillstedt / vocals
Правила, инструкции, FAQ!!!
Торрент  Добавлен [26 мар 2019, 19:18] Скачать торрент Магнет ссылка
Скачать торрент
[ Размер 18.99 КБ / Просмотров 3 ]

Статус
Проверен 
 
Размер  228.62 МБ
Приватный: Нет (DHT включён)
.torrent скачан  0
 


     Отправить личное сообщение
   
Страница 1 из 1
Показать сообщения за:  Поле сортировки  
Начать новую тему Ответить на тему


Сейчас этот форум просматривают: нет зарегистрированных пользователей и гости: 0


Вы не можете начинать темы
Вы не можете отвечать на сообщения
Вы не можете редактировать свои сообщения
Вы не можете удалять свои сообщения
Вы не можете добавлять вложения

Перейти:  
cron