Начать новую тему Ответить на тему
Статистика раздачи
Размер: 254.25 МБ | Добавлен: 26 мар 2019, 19:18 | Скачали: 0
Сидеров: 0  [0 байт/сек]    Личеров: 0  [0 байт/сек]
Пред. тема | След. тема 

Автор
Сообщение

СообщениеДобавлено: 26 мар 2019, 19:18 

Ответить с цитатой 

Drago Mlinarec / Negdje postoji netko
Жанр: Soft Rock
Носитель: CD
Страна-производитель диска: Yugoslavia
Год издания: 1977
Издатель (лейбл): Jugoton
Номер по каталогу: CD 5878681
Страна: Croatia
Аудиокодек: FLAC (*.flac)
Тип рипа: tracks+.cue
Битрейт аудио: lossless
Продолжительность: 00:42:17
Источник (релизер): personal
Наличие сканов в содержимом раздачи: да
Треклист:
1. Negdje postoji netko (4:15)
2. Gdje je istina (6:01)
3. Zelen k'o zelena trava (2:58)
4. Caracas (5:26)
5. Jedrenjak (6:36)
6. Polja (6:25)
7. Cvrkut ptica (10:36)
Код:
Exact Audio Copy V1.0 beta 3 from 29. August 2011
EAC extraction logfile from 5. April 2014, 21:33
Drago Mlinarec / Negdje postoji netko
Used drive  : ATAPI   DVD A  DH20A4P   Adapter: 2  ID: 0
Read mode               : Secure
Utilize accurate stream : Yes
Defeat audio cache      : Yes
Make use of C2 pointers : No
Read offset correction                      : 6
Overread into Lead-In and Lead-Out          : No
Fill up missing offset samples with silence : Yes
Delete leading and trailing silent blocks   : No
Null samples used in CRC calculations       : Yes
Used interface                              : Native Win32 interface for Win NT & 2000
Gap handling                                : Appended to previous track
Used output format              : User Defined Encoder
Selected bitrate                : 896 kBit/s
Quality                         : High
Add ID3 tag                     : No
Command line compressor         : C:\Program Files\Exact Audio Copy\FLAC\FLAC.EXE
Additional command line options : -V -8 -T "Genre=%genre%" -T "Artist=%artist%" -T "Title=%title%" -T "Album=%albumtitle%" -T "Date=%year%" -T "Tracknumber=%tracknr%" -T "Comment=%comment%" %source%
TOC of the extracted CD
     Track |   Start  |  Length  | Start sector | End sector
    ---------------------------------------------------------
        1  |  0:00.00 |  4:30.21 |         0    |    20270
        2  |  4:30.21 |  6:23.03 |     20271    |    48998
        3  | 10:53.24 |  3:10.66 |     48999    |    63314
        4  | 14:04.15 |  5:33.08 |     63315    |    88297
        5  | 19:37.23 |  6:58.17 |     88298    |   119664
        6  | 26:35.40 |  6:48.47 |    119665    |   150311
        7  | 33:24.12 | 10:46.40 |    150312    |   198801
Track  1
     Filename D:\Music\Rock, Blues, Pop\Drago Mlinarec - Negdje postoji netko - 1977\01 Negdje postoji netko.wav
     Pre-gap length  0:00:02.00
     Peak level 98.8 %
     Extraction speed 1.8 X
     Track quality 100.0 %
     Test CRC 1760C8B5
     Copy CRC 1760C8B5
     Accurately ripped (confidence 1)  [ACA3AB73]  (AR v2)
     Copy OK
Track  2
     Filename D:\Music\Rock, Blues, Pop\Drago Mlinarec - Negdje postoji netko - 1977\02 Gdje je istina.wav
     Peak level 98.8 %
     Extraction speed 2.2 X
     Track quality 100.0 %
     Test CRC 2EA173E7
     Copy CRC 2EA173E7
     Accurately ripped (confidence 1)  [800F9068]  (AR v2)
     Copy OK
Track  3
     Filename D:\Music\Rock, Blues, Pop\Drago Mlinarec - Negdje postoji netko - 1977\03 Zelen k'o zelena trava.wav
     Peak level 98.8 %
     Extraction speed 1.8 X
     Track quality 99.9 %
     Test CRC 6FA39D2F
     Copy CRC 6FA39D2F
     Accurately ripped (confidence 1)  [64FD4D59]  (AR v2)
     Copy OK
Track  4
     Filename D:\Music\Rock, Blues, Pop\Drago Mlinarec - Negdje postoji netko - 1977\04 Caracas.wav
     Peak level 98.9 %
     Extraction speed 2.5 X
     Track quality 100.0 %
     Test CRC 42C67610
     Copy CRC 42C67610
     Accurately ripped (confidence 1)  [3533D5B5]  (AR v2)
     Copy OK
Track  5
     Filename D:\Music\Rock, Blues, Pop\Drago Mlinarec - Negdje postoji netko - 1977\05 Jedrenjak.wav
     Peak level 98.8 %
     Extraction speed 2.8 X
     Track quality 100.0 %
     Test CRC 53019CFC
     Copy CRC 53019CFC
     Accurately ripped (confidence 1)  [F8718830]  (AR v2)
     Copy OK
Track  6
     Filename D:\Music\Rock, Blues, Pop\Drago Mlinarec - Negdje postoji netko - 1977\06 Polja.wav
     Peak level 98.8 %
     Extraction speed 3.1 X
     Track quality 100.0 %
     Test CRC DF7D0648
     Copy CRC DF7D0648
     Accurately ripped (confidence 1)  [CC943148]  (AR v2)
     Copy OK
Track  7
     Filename D:\Music\Rock, Blues, Pop\Drago Mlinarec - Negdje postoji netko - 1977\07 Cvrkut ptica.wav
     Peak level 97.7 %
     Extraction speed 3.4 X
     Track quality 100.0 %
     Test CRC 5FCADE1E
     Copy CRC 5FCADE1E
     Accurately ripped (confidence 1)  [F7D9E370]  (AR v2)
     Copy OK
All tracks accurately ripped
No errors occurred
End of status report
==== Log checksum 6A5720BFE3EF391EBB64985ECB6134C2C560077E4581B1AD64FDF2A8FB49ADFE ====
Код:
REM GENRE "Slow Rock"
REM DATE 1977
REM DISCID 5F0A5A07
REM COMMENT "ExactAudioCopy v1.0b3"
PERFORMER "Drago Mlinarec"
TITLE "Negdje postoji netko"
FILE "01 Negdje postoji netko.flac" WAVE
  TRACK 01 AUDIO
    TITLE "Negdje postoji netko"
    PERFORMER "Drago Mlinarec"
    ISRC HRA047734103
    INDEX 01 00:00:00
FILE "02 Gdje je istina.flac" WAVE
  TRACK 02 AUDIO
    TITLE "Gdje je istina"
    PERFORMER "Drago Mlinarec"
    ISRC HRA047761631
    INDEX 01 00:00:00
FILE "03 Zelen k'o zelena trava.flac" WAVE
  TRACK 03 AUDIO
    TITLE "Zelen k'o zelena trava"
    PERFORMER "Drago Mlinarec"
    ISRC HRA047761631
    INDEX 01 00:00:00
FILE "04 Caracas.flac" WAVE
  TRACK 04 AUDIO
    TITLE "Caracas"
    PERFORMER "Drago Mlinarec"
    ISRC HRA047755677
    INDEX 01 00:00:00
FILE "05 Jedrenjak.flac" WAVE
  TRACK 05 AUDIO
    TITLE "Jedrenjak"
    PERFORMER "Drago Mlinarec"
    ISRC HRA047755677
    INDEX 01 00:00:00
FILE "06 Polja.flac" WAVE
  TRACK 06 AUDIO
    TITLE "Polja"
    PERFORMER "Drago Mlinarec"
    ISRC HRA047755678
    INDEX 01 00:00:00
FILE "07 Cvrkut ptica.flac" WAVE
  TRACK 07 AUDIO
    TITLE "Cvrkut ptica"
    PERFORMER "Drago Mlinarec"
    ISRC HRA047761634
    INDEX 01 00:00:00
Доп. информация: https://www.youtube.com/watch?v=qFdJv0c_F5M
https://www.youtube.com/watch?v=PyuqNXVAj_I
- Drago Mlinarec / vocals, acoustic guitar, 12-string guitar, harmonica, tambourine
- Neven Franges / ac. piano, Fender Rhodes electric piano, synthesizers
- Davor Rocco / bass (3, 4, 5, 6, 7)
- Mario Mavrin / bass (2, 4)
- Ratko Divjak / drums (2, 4)
- Dragan Brcic / drums (5)
- Berislav Puhlovski / congas, bongos, percussion (4)
Правила, инструкции, FAQ!!!
Торрент  Добавлен [26 мар 2019, 19:18] Скачать торрент Магнет ссылка
Скачать торрент
[ Размер 21.05 КБ / Просмотров 0 ]

Статус
Проверен 
 
Размер  254.25 МБ
Приватный: Нет (DHT включён)
.torrent скачан  0
 


     Отправить личное сообщение
   
Страница 1 из 1
Показать сообщения за:  Поле сортировки  
Начать новую тему Ответить на тему


Сейчас этот форум просматривают: нет зарегистрированных пользователей и гости: 0


Вы не можете начинать темы
Вы не можете отвечать на сообщения
Вы не можете редактировать свои сообщения
Вы не можете удалять свои сообщения
Вы не можете добавлять вложения

Перейти:  
cron