Начать новую тему Ответить на тему
Статистика раздачи
Размер: 227.49 МБ | Добавлен: 26 мар 2019, 19:15 | Скачали: 0
Сидеров: 0  [0 байт/сек]    Личеров: 0  [0 байт/сек]
Пред. тема | След. тема 

Автор
Сообщение

СообщениеДобавлено: 26 мар 2019, 19:15 

Ответить с цитатой 

Drago Mlinarec / A ti se ne daj
Жанр: Soft Rock
Носитель: CD
Страна-производитель диска: Yugoslavia
Год издания: 1971
Издатель (лейбл): Jugoton
Номер по каталогу: CD 5878650
Страна: Croatia
Аудиокодек: FLAC (*.flac)
Тип рипа: tracks+.cue
Битрейт аудио: lossless
Продолжительность: 00:38:20
Источник (релизер): personal
Наличие сканов в содержимом раздачи: да
Треклист:
1. Pop pjevac (3:50)
2. Moje ladje (3:42)
3. Srebri se mraz (4:20)
4. Ja sam Feniks (3:58)
5. A ti se ne daj (3:10)
6. Bar dok si tu (2:59)
7. Izgleda ostat ces sam (4:26)
8. Grad (5:39)
9. Posmrtna posveta (6:16)
Код:
Exact Audio Copy V1.0 beta 3 from 29. August 2011
EAC extraction logfile from 5. April 2014, 11:14
Drago Mlinarec / A ti se ne daj
Used drive  : ATAPI   DVD A  DH20A4P   Adapter: 2  ID: 0
Read mode               : Secure
Utilize accurate stream : Yes
Defeat audio cache      : Yes
Make use of C2 pointers : No
Read offset correction                      : 6
Overread into Lead-In and Lead-Out          : No
Fill up missing offset samples with silence : Yes
Delete leading and trailing silent blocks   : No
Null samples used in CRC calculations       : Yes
Used interface                              : Native Win32 interface for Win NT & 2000
Gap handling                                : Appended to previous track
Used output format              : User Defined Encoder
Selected bitrate                : 896 kBit/s
Quality                         : High
Add ID3 tag                     : No
Command line compressor         : C:\Program Files\Exact Audio Copy\FLAC\FLAC.EXE
Additional command line options : -V -8 -T "Genre=%genre%" -T "Artist=%artist%" -T "Title=%title%" -T "Album=%albumtitle%" -T "Date=%year%" -T "Tracknumber=%tracknr%" -T "Comment=%comment%" %source%
TOC of the extracted CD
     Track |   Start  |  Length  | Start sector | End sector
    ---------------------------------------------------------
        1  |  0:00.00 |  3:56.47 |         0    |    17746
        2  |  3:56.47 |  3:55.10 |     17747    |    35381
        3  |  7:51.57 |  4:35.17 |     35382    |    56023
        4  | 12:26.74 |  4:12.34 |     56024    |    74957
        5  | 16:39.33 |  3:25.44 |     74958    |    90376
        6  | 20:05.02 |  3:09.13 |     90377    |   104564
        7  | 23:14.15 |  4:43.24 |    104565    |   125813
        8  | 27:57.39 |  5:59.06 |    125814    |   152744
        9  | 33:56.45 |  6:34.67 |    152745    |   182361
Track  1
     Filename D:\Music\Rock, Blues, Pop\Drago Mlinarec - A ti se ne daj - 1971\01 Pop pjevac.wav
     Pre-gap length  0:00:02.00
     Peak level 98.8 %
     Extraction speed 1.8 X
     Track quality 100.0 %
     Test CRC 4AF685D9
     Copy CRC 4AF685D9
     Accurately ripped (confidence 2)  [656B7503]  (AR v2)
     Copy OK
Track  2
     Filename D:\Music\Rock, Blues, Pop\Drago Mlinarec - A ti se ne daj - 1971\02 Moje ladje.wav
     Peak level 98.7 %
     Extraction speed 2.0 X
     Track quality 100.0 %
     Test CRC EF29859F
     Copy CRC EF29859F
     Accurately ripped (confidence 2)  [EDB2479F]  (AR v2)
     Copy OK
Track  3
     Filename D:\Music\Rock, Blues, Pop\Drago Mlinarec - A ti se ne daj - 1971\03 Srebri se mraz.wav
     Copy aborted
Track  4
     Copy aborted
Track  5
     Copy aborted
Track  6
     Copy aborted
Track  7
     Copy aborted
Track  8
     Copy aborted
Track  9
     Copy aborted
 2 track(s) accurately ripped
 7 track(s) canceled
Some tracks could not be verified as accurate
There were errors
End of status report
==== Log checksum C0CE6946D7F48C5EE19FE91B074A34B3804C8130D3C9C601DE43A3FAFFB9FA21 ====
------------------------------------------------------------
Exact Audio Copy V1.0 beta 3 from 29. August 2011
EAC extraction logfile from 5. April 2014, 18:53
Drago Mlinarec / A ti se ne daj
Used drive  : ATAPI   DVD A  DH20A4P   Adapter: 2  ID: 0
Read mode               : Secure
Utilize accurate stream : Yes
Defeat audio cache      : Yes
Make use of C2 pointers : No
Read offset correction                      : 6
Overread into Lead-In and Lead-Out          : No
Fill up missing offset samples with silence : Yes
Delete leading and trailing silent blocks   : No
Null samples used in CRC calculations       : Yes
Used interface                              : Native Win32 interface for Win NT & 2000
Gap handling                                : Appended to previous track
Used output format              : User Defined Encoder
Selected bitrate                : 896 kBit/s
Quality                         : High
Add ID3 tag                     : No
Command line compressor         : C:\Program Files\Exact Audio Copy\FLAC\FLAC.EXE
Additional command line options : -V -8 -T "Genre=%genre%" -T "Artist=%artist%" -T "Title=%title%" -T "Album=%albumtitle%" -T "Date=%year%" -T "Tracknumber=%tracknr%" -T "Comment=%comment%" %source%
TOC of the extracted CD
     Track |   Start  |  Length  | Start sector | End sector
    ---------------------------------------------------------
        1  |  0:00.00 |  3:56.47 |         0    |    17746
        2  |  3:56.47 |  3:55.10 |     17747    |    35381
        3  |  7:51.57 |  4:35.17 |     35382    |    56023
        4  | 12:26.74 |  4:12.34 |     56024    |    74957
        5  | 16:39.33 |  3:25.44 |     74958    |    90376
        6  | 20:05.02 |  3:09.13 |     90377    |   104564
        7  | 23:14.15 |  4:43.24 |    104565    |   125813
        8  | 27:57.39 |  5:59.06 |    125814    |   152744
        9  | 33:56.45 |  6:34.67 |    152745    |   182361
Track  1
     Filename D:\Music\Rock, Blues, Pop\Drago Mlinarec - A ti se ne daj - 1971\01 Pop pjevac.wav
     Pre-gap length  0:00:02.00
     Peak level 98.8 %
     Extraction speed 1.8 X
     Track quality 100.0 %
     Test CRC 4AF685D9
     Copy CRC 4AF685D9
     Accurately ripped (confidence 2)  [656B7503]  (AR v2)
     Copy OK
Track  2
     Filename D:\Music\Rock, Blues, Pop\Drago Mlinarec - A ti se ne daj - 1971\02 Moje ladje.wav
     Peak level 98.7 %
     Extraction speed 2.0 X
     Track quality 100.0 %
     Test CRC EF29859F
     Copy CRC EF29859F
     Accurately ripped (confidence 2)  [EDB2479F]  (AR v2)
     Copy OK
Track  3
     Filename D:\Music\Rock, Blues, Pop\Drago Mlinarec - A ti se ne daj - 1971\03 Srebri se mraz.wav
     Peak level 98.8 %
     Extraction speed 1.9 X
     Track quality 99.9 %
     Test CRC 705F7EA9
     Copy CRC 705F7EA9
     Accurately ripped (confidence 2)  [D1C79959]  (AR v2)
     Copy OK
Track  4
     Filename D:\Music\Rock, Blues, Pop\Drago Mlinarec - A ti se ne daj - 1971\04 Ja sam feniks.wav
     Peak level 90.3 %
     Extraction speed 2.3 X
     Track quality 100.0 %
     Test CRC 1B3A5842
     Copy CRC 1B3A5842
     Accurately ripped (confidence 2)  [5E0CA269]  (AR v2)
     Copy OK
Track  5
     Filename D:\Music\Rock, Blues, Pop\Drago Mlinarec - A ti se ne daj - 1971\05 A ti se ne daj.wav
     Peak level 98.8 %
     Extraction speed 2.4 X
     Track quality 100.0 %
     Test CRC 8F7D9BD0
     Copy CRC 8F7D9BD0
     Accurately ripped (confidence 2)  [4573F4A2]  (AR v2)
     Copy OK
Track  6
     Filename D:\Music\Rock, Blues, Pop\Drago Mlinarec - A ti se ne daj - 1971\06 Bar dok si tu.wav
     Peak level 98.8 %
     Extraction speed 2.5 X
     Track quality 100.0 %
     Test CRC 373D4804
     Copy CRC 373D4804
     Accurately ripped (confidence 2)  [D6AF29AC]  (AR v2)
     Copy OK
Track  7
     Filename D:\Music\Rock, Blues, Pop\Drago Mlinarec - A ti se ne daj - 1971\07 Izgleda, ostat ces sam.wav
     Peak level 98.8 %
     Extraction speed 2.8 X
     Track quality 100.0 %
     Test CRC 4B599E98
     Copy CRC 4B599E98
     Accurately ripped (confidence 2)  [3D7044FB]  (AR v2)
     Copy OK
Track  8
     Filename D:\Music\Rock, Blues, Pop\Drago Mlinarec - A ti se ne daj - 1971\08 Grad.wav
     Peak level 98.8 %
     Extraction speed 3.0 X
     Track quality 100.0 %
     Test CRC 74A5B49C
     Copy CRC 74A5B49C
     Accurately ripped (confidence 2)  [F41AA257]  (AR v2)
     Copy OK
Track  9
     Filename D:\Music\Rock, Blues, Pop\Drago Mlinarec - A ti se ne daj - 1971\09 Posmrtna osveta.wav
     Peak level 98.8 %
     Extraction speed 3.3 X
     Track quality 100.0 %
     Test CRC 33E5D31B
     Copy CRC 33E5D31B
     Accurately ripped (confidence 2)  [9E92BD60]  (AR v2)
     Copy OK
All tracks accurately ripped
No errors occurred
End of status report
==== Log checksum FC84D899CE930015E96474FFD12C23F08FEBE0CE3C287FB1E9789AB3233B2CAC ====
Код:
REM GENRE "Slow Rock"
REM DATE 1971
REM DISCID 73097F09
REM COMMENT "ExactAudioCopy v1.0b3"
CATALOG 3850125921271
PERFORMER "Drago Mlinarec"
TITLE "A ti se ne daj"
FILE "01 Pop pjevac.flac" WAVE
  TRACK 01 AUDIO
    TITLE "Pop pjevac"
    PERFORMER "Drago Mlinarec"
    ISRC HRA047110506
    INDEX 01 00:00:00
FILE "02 Moje ladje.flac" WAVE
  TRACK 02 AUDIO
    TITLE "Moje ladje"
    PERFORMER "Drago Mlinarec"
    ISRC HRA047110507
    INDEX 01 00:00:00
FILE "03 Srebri se mraz.flac" WAVE
  TRACK 03 AUDIO
    TITLE "Srebri se mraz"
    PERFORMER "Drago Mlinarec"
    ISRC HRA047110508
    INDEX 01 00:00:00
FILE "04 Ja sam feniks.flac" WAVE
  TRACK 04 AUDIO
    TITLE "Ja sam feniks"
    PERFORMER "Drago Mlinarec"
    ISRC HRA047110509
    INDEX 01 00:00:00
FILE "05 A ti se ne daj.flac" WAVE
  TRACK 05 AUDIO
    TITLE "A ti se ne daj"
    PERFORMER "Drago Mlinarec"
    ISRC HRA047110510
    INDEX 01 00:00:00
FILE "06 Bar dok si tu.flac" WAVE
  TRACK 06 AUDIO
    TITLE "Bar dok si tu"
    PERFORMER "Drago Mlinarec"
    ISRC HRA047110511
    INDEX 01 00:00:00
FILE "07 Izgleda, ostat ces sam.flac" WAVE
  TRACK 07 AUDIO
    TITLE "Izgleda, ostat ces sam"
    PERFORMER "Drago Mlinarec"
    ISRC HRA047110512
    INDEX 01 00:00:00
FILE "08 Grad.flac" WAVE
  TRACK 08 AUDIO
    TITLE "Grad"
    PERFORMER "Drago Mlinarec"
    ISRC HRA047110513
    INDEX 01 00:00:00
FILE "09 Posmrtna osveta.flac" WAVE
  TRACK 09 AUDIO
    TITLE "Posmrtna osveta"
    PERFORMER "Drago Mlinarec"
    ISRC HRA047110514
    INDEX 01 00:00:00
Доп. информация: https://www.youtube.com/watch?v=8sAT8Xq0Dww
https://www.youtube.com/watch?v=t8VXa3TGw0Q
https://www.youtube.com/watch?v=h7QHv2zD53A
- Drago Mlinarec / lead vocals, guitars, harmonica, flute
- Husein Hasanefendic / lead guitar
- Ivan Piko Stancic / drums, percussions
- Nenad Zubak / bass
- Brane Zivkovic / piano, flute, organ
Правила, инструкции, FAQ!!!
Торрент  Добавлен [26 мар 2019, 19:15] Скачать торрент Магнет ссылка
Скачать торрент
[ Размер 19.02 КБ / Просмотров 1 ]

Статус
Проверен 
 
Размер  227.49 МБ
Приватный: Нет (DHT включён)
.torrent скачан  0
 


     Отправить личное сообщение
   
Страница 1 из 1
Показать сообщения за:  Поле сортировки  
Начать новую тему Ответить на тему


Сейчас этот форум просматривают: нет зарегистрированных пользователей и гости: 0


Вы не можете начинать темы
Вы не можете отвечать на сообщения
Вы не можете редактировать свои сообщения
Вы не можете удалять свои сообщения
Вы не можете добавлять вложения

Перейти:  
cron