Начать новую тему Ответить на тему
Статистика раздачи
Размер: 349.24 МБ | Добавлен: 26 мар 2019, 20:08 | Скачали: 0
Сидеров: 1  [0 байт/сек]    Личеров: 0  [0 байт/сек]
Пред. тема | След. тема 

Автор
Сообщение

СообщениеДобавлено: 26 мар 2019, 20:08 

Ответить с цитатой 

Little River Band - Standing Room Only (Recorded Live)
Жанр: Soft Rock, Country Rock
Страна-производитель диска: USA
Год издания диска: 2007
Издатель (лейбл): Sony BMG Music Entertainment/Euterpe Productions
Номер по каталогу: A 703555
Страна: Australia
Аудио кодек: WAVPack (*.wv)
Тип рипа: image+.cue
Битрейт аудио: lossless
Продолжительность: 00:52:18
Источник (релизер): Гордый
Наличие сканов в содержимом раздачи: да
Треклист:
01. Reminiscing 04:51
02. Man on Your Mind 03:54
03. Happy Anniversary 05:23
04. Take It Easy on Me 04:01
05. The Other Guy 04:00
06. Help Is on the Way 04:16
07. The Night Owls 05:15
08. Cool Change 08:01
09. Lonesome Loser 06:28
10. Lady 06:05
Код:
Exact Audio Copy V0.99 prebeta 4 from 23. January 2008
EAC extraction logfile from
Little River Band / Standing Room Only
Used drive : HL-DT-STDVD-RAM GSA-E60L Adapter: 5 ID: 0
Read mode : Secure
Utilize accurate stream : Yes
Defeat audio cache : Yes
Make use of C2 pointers : No
Read offset correction : 102
Overread into Lead-In and Lead-Out : Yes
Fill up missing offset samples with silence : Yes
Delete leading and trailing silent blocks : No
Null samples used in CRC calculations : Yes
Used interface : Installed external ASPI interface
Used output format : Internal WAV Routines
Sample format : 44.100 Hz; 16 Bit; Stereo
TOC of the extracted CD
 Track | Start | Length | Start sector | End sector
 ---------------------------------------------------------
 1 | 0:00.00 | 4:51.73 | 0 | 21897
 2 | 4:51.73 | 3:54.45 | 21898 | 39492
 3 | 8:46.43 | 5:23.03 | 39493 | 63720
 4 | 14:09.46 | 4:01.23 | 63721 | 81818
 5 | 18:10.69 | 4:00.06 | 81819 | 99824
 6 | 22:11.00 | 4:16.18 | 99825 | 119042
 7 | 26:27.18 | 5:15.49 | 119043 | 142716
 8 | 31:42.67 | 8:01.54 | 142717 | 178845
 9 | 39:44.46 | 6:28.18 | 178846 | 207963
 10 | 46:12.64 | 6:05.09 | 207964 | 235347
Range status and errors
Selected range
 Filename
 Peak level 98.9 %
 Range quality 100.0 %
 Test CRC 01BE6A6F
 Copy CRC 01BE6A6F
 Copy OK
No errors occurred
AccurateRip summary
Track 1 not present in database
Track 2 not present in database
Track 3 not present in database
Track 4 not present in database
Track 5 not present in database
Track 6 not present in database
Track 7 not present in database
Track 8 not present in database
Track 9 not present in database
Track 10 not present in database
None of the tracks are present in the AccurateRip database
End of status report
Код:
REM GENRE "Rock & Roll"
REM DATE 2007
REM DISCID 8F0C410A
REM COMMENT "ExactAudioCopy v0.99pb4"
PERFORMER "Little River Band"
TITLE "Standing Room Only"
FILE "Little River Band - Standing Room Only.wv" WAVE
  TRACK 01 AUDIO
    TITLE "Reminiscing"
    PERFORMER "Little River Band"
    INDEX 01 00:00:00
  TRACK 02 AUDIO
    TITLE "Man on Your Mind"
    PERFORMER "Little River Band"
    INDEX 01 04:51:73
  TRACK 03 AUDIO
    TITLE "Happy Anniversary"
    PERFORMER "Little River Band"
    INDEX 01 08:46:43
  TRACK 04 AUDIO
    TITLE "Take It Easy on Me"
    PERFORMER "Little River Band"
    INDEX 01 14:09:46
  TRACK 05 AUDIO
    TITLE "The Other Guy"
    PERFORMER "Little River Band"
    INDEX 01 18:10:69
  TRACK 06 AUDIO
    TITLE "Help Is on the Way"
    PERFORMER "Little River Band"
    INDEX 01 22:11:00
  TRACK 07 AUDIO
    TITLE "The Night Owls"
    PERFORMER "Little River Band"
    INDEX 01 26:27:18
  TRACK 08 AUDIO
    TITLE "Cool Change"
    PERFORMER "Little River Band"
    INDEX 01 31:42:67
  TRACK 09 AUDIO
    TITLE "Lonesome Loser"
    PERFORMER "Little River Band"
    INDEX 01 39:44:46
  TRACK 10 AUDIO
    TITLE "Lady"
    PERFORMER "Little River Band"
    INDEX 01 46:12:64
Код:
-----------------------
DON'T MODIFY THIS FILE
-----------------------
PERFORMER: auCDtect Task Manager, ver. 1.5.1RC4 build 1.5.1.5
Copyright (c) 2008-2010 y-soft. All rights reserved
[url=http://y-soft.org]http://y-soft.org[/url]
ANALYZER: auCDtect: CD records authenticity detector, version 0.8.2
Copyright (c) 2004 Oleg Berngardt. All rights reserved.
Copyright (c) 2004 Alexander Djourik. All rights reserved.
FILE: Little River Band - Standing Room Only.wv
  Size: 350935344 Hash: 98C8F257EADB39D8142E9C043ACD3704 Accuracy: -m8
  Conclusion: CDDA 100%
  Signature: 9E2DC9689D670FA62367E7DDBDD61AAA3961B473
Доп. информация:
Chris Marion - keyboards, vocals
Greg Hind - guitar, vocals
Billy Thomas - drums, vocals
Wayne Nelson - bass, vocals
Stephen Housden - guitar
Rich Herring - guitar, vocals
Ее участники уже были известны у себя на родине. Вокалист Гленн Шоррок сделал себе имя в середине 60-х, в "Twilights", группе, игравшей в стиле "Beatles". Когда в 1969-м команда распалась Шоррок ушел в "Axiom". Будущий басист "Little river band" Биб Битлс играл в "Zoot", после распада которой выступал вместе с Грэмом Гоблом в "Mississippi". Познакомившись с Шорроком ребята решили создать новую группу.
Желая славы, парни немедленно взялись за работу в студии. На ударных остался член "Mississippi" Дерек Пеллиси. Первым синглом группы стала кавер-версия песни "Everly brothers" "When will i be loved". Звучание же "Little river band" чем-то напоминало кантри-рока от "Eagles". Их первый альбом был выпущен в ноябре 1975-го.
На следующий год вышел второй диск, "After Hours", после чего команда впервые отправилась за границу и даже выступила на разогреве у "Queen". После поездки Грэм Гобл написал эпическую вещь "It's a Long Way There", которую удалось издать в Америке синглом. Неожиданно песня была замечена и даже попала в чарты.
Их американская компания грамзаписи решила, что второй альбом был слишком мрачен, и отправила группу прямо в студию, чтобы делать запись следующего диска, разрешив использовать на нем некоторые треки из "After Hours". В результате появился на свет "Diamantina Cocktail". Самой классной вещью с этого альбома стала "Help Is on Its Way" Шоррока. Композиция попала в штатовские чарты, а в Австралии надолго зависла на верних строчках хит-парадов. Альбом достиг в Америке золотого статуса, что было первый раз с какой-нибудь австралийской командой.
Следующий диск "Sleeper Catcher", записанный в Австралии, разошелся в США тиражом более миллиона копий. В это же время сингл "Reminiscing", занял третью позицию в штатовских чартах. В течение следующих четырех лет "Little river band" продолжали болтаться между двумя континентами, постоянно выступая с концертами.
Внутри группы отношения складывались не лучшим образом. Шоррок, Битлс и Гобл в студии записывались по отдельности, путешествовали по отдельности и лишь на сцене им приходилось быть "вместе". Регулярные замены других членов команды только усиливали напряженность. В перерыве между американскими турами Грэм Гобл взялся продюсировать альбом Джона Фарнхама, и сагитировал того заменить Гленна Шоррока. Фаны, особенно американские были в шоке. Однако "Little river band" вместе с Фарнхамом приступили к записи очередного альбома, "The net". Затем последовала вереница изменений в составе, включая уход Биба Битлса. За четыре года своего пребывания в "Little river band" Джон Фарнхам принял участие в записи трех альбомов. Но дело не ладилось и американские фаны не хотели его признавать. В конце 1985-го Джону пришлось уйти из группы, и он продолжил довольно успешно свою сольную карьеру.
"LRB" реанимировались в 1988 году с новым менеджментом и на новом лейбле. Гленн Шоррок и Дерек Пелликси воссоединились с Гоблом и при участии новичков Уэйна Нельсона и Джона Хосдена записали альбом "Monsoon" и сингл "Love Is a Bridge".
Правила, инструкции, FAQ!!!
Торрент  Добавлен [26 мар 2019, 20:08] Скачать торрент Магнет ссылка
Скачать торрент
[ Размер 14.68 КБ / Просмотров 2 ]

Статус
Проверен 
 
Размер  349.24 МБ
Приватный: Нет (DHT включён)
.torrent скачан  0
 


     Отправить личное сообщение
   
Страница 1 из 1
Показать сообщения за:  Поле сортировки  
Начать новую тему Ответить на тему


Сейчас этот форум просматривают: нет зарегистрированных пользователей и гости: 0


Вы не можете начинать темы
Вы не можете отвечать на сообщения
Вы не можете редактировать свои сообщения
Вы не можете удалять свои сообщения
Вы не можете добавлять вложения

Перейти:  
cron