Начать новую тему Ответить на тему
Статистика раздачи
Размер: 465.86 МБ | Добавлен: 26 мар 2019, 20:12 | Скачали: 0
Сидеров: 0  [0 байт/сек]    Личеров: 0  [0 байт/сек]
Пред. тема | След. тема 

Автор
Сообщение

СообщениеДобавлено: 26 мар 2019, 20:12 

Ответить с цитатой 

Little River Band - One Night in Mississippi
Жанр: Soft Rock, Country Rock
Страна-производитель диска: EU
Год издания диска: 2005
Издатель (лейбл): Eagle Rock Entertainment Limited/EUROTREND
Номер по каталогу: CD 142.176
Страна: Australia
Аудио кодек: WAVPack (*.wv)
Тип рипа: image+.cue
Битрейт аудио: lossless
Продолжительность: 01:06:28
Источник (релизер): Гордый
Наличие сканов в содержимом раздачи: да
Треклист:
01. Man On Your Mind 05:58
02. This Place 04:51
03. Take It Easy On Me 03:50
04. Lonesome Looser 04:20
05. Where We Started From 03:47
06. Reminiscing 03:38
07. Happy Anniverary 04:12
08. Who Made The Moon 05:00
09. The Night Owls 06:15
10. Help Is On It's Way 04:09
11. It's Not A Wonder 04:38
12. I think I Left My Heart With You 03:54
13. Cool Change 05:57
14. Lady 05:52
Код:
Exact Audio Copy V0.99 prebeta 4 from 23. January 2008
EAC extraction logfile from
Little River Band / One Night In Mississippi
Used drive : TSSTcorpCD/DVDW SH-S182M Adapter: 4 ID: 0
Read mode : Secure
Utilize accurate stream : Yes
Defeat audio cache : Yes
Make use of C2 pointers : No
Read offset correction : 6
Overread into Lead-In and Lead-Out : No
Fill up missing offset samples with silence : Yes
Delete leading and trailing silent blocks : No
Null samples used in CRC calculations : Yes
Used interface : Installed external ASPI interface
Used output format : Internal WAV Routines
Sample format : 44.100 Hz; 16 Bit; Stereo
TOC of the extracted CD
 Track | Start | Length | Start sector | End sector
 ---------------------------------------------------------
 1 | 0:00.00 | 5:58.23 | 0 | 26872
 2 | 5:58.23 | 4:51.11 | 26873 | 48708
 3 | 10:49.34 | 3:50.16 | 48709 | 65974
 4 | 14:39.50 | 4:20.38 | 65975 | 85512
 5 | 19:00.13 | 3:47.65 | 85513 | 102602
 6 | 22:48.03 | 3:38.67 | 102603 | 119019
 7 | 26:26.70 | 4:12.09 | 119020 | 137928
 8 | 30:39.04 | 5:00.54 | 137929 | 160482
 9 | 35:39.58 | 6:15.70 | 160483 | 188677
 10 | 41:55.53 | 4:09.64 | 188678 | 207416
 11 | 46:05.42 | 4:38.43 | 207417 | 228309
 12 | 50:44.10 | 3:54.15 | 228310 | 245874
 13 | 54:38.25 | 5:57.17 | 245875 | 272666
 14 | 60:35.42 | 5:52.27 | 272667 | 299093
Range status and errors
Selected range
 Filename
 Peak level 97.7 %
 Range quality 100.0 %
 Test CRC DDA7E88E
 Copy CRC DDA7E88E
 Copy OK
No errors occurred
AccurateRip summary
Track 1 not present in database
Track 2 not present in database
Track 3 not present in database
Track 4 not present in database
Track 5 not present in database
Track 6 not present in database
Track 7 not present in database
Track 8 not present in database
Track 9 not present in database
Track 10 not present in database
Track 11 not present in database
Track 12 not present in database
Track 13 not present in database
Track 14 not present in database
None of the tracks are present in the AccurateRip database
End of status report
Код:
REM GENRE Country
REM DATE 2005
REM DISCID B90F930E
REM COMMENT "ExactAudioCopy v0.99pb4"
CATALOG 9002986421764
PERFORMER "Little River Band"
TITLE "One Night In Mississippi"
FILE "Little River Band - One Night In Mississippi.wv" WAVE
  TRACK 01 AUDIO
    TITLE "Man On Your Mind"
    PERFORMER "Little River Band"
    ISRC GASBF0401247
    INDEX 01 00:00:00
  TRACK 02 AUDIO
    TITLE "This Place"
    PERFORMER "Little River Band"
    ISRC GASBF0401248
    INDEX 01 05:58:23
  TRACK 03 AUDIO
    TITLE "Take It Easy On Me"
    PERFORMER "Little River Band"
    ISRC GASBF0401249
    INDEX 01 10:49:34
  TRACK 04 AUDIO
    TITLE "Lonesome Looser"
    PERFORMER "Little River Band"
    ISRC GASBF0401250
    INDEX 01 14:39:50
  TRACK 05 AUDIO
    TITLE "Where We Started From"
    PERFORMER "Little River Band"
    ISRC GASBF0401251
    INDEX 01 19:00:13
  TRACK 06 AUDIO
    TITLE "Reminiscing"
    PERFORMER "Little River Band"
    ISRC GASBF0401252
    INDEX 01 22:48:03
  TRACK 07 AUDIO
    TITLE "Happy Anniverary"
    PERFORMER "Little River Band"
    ISRC GASBF0401253
    INDEX 01 26:26:70
  TRACK 08 AUDIO
    TITLE "Who Made The Moon"
    PERFORMER "Little River Band"
    ISRC GASBF0401254
    INDEX 01 30:39:04
  TRACK 09 AUDIO
    TITLE "The Night Owls"
    PERFORMER "Little River Band"
    ISRC GASBF0401255
    INDEX 01 35:39:58
  TRACK 10 AUDIO
    TITLE "Help Is On It's Way"
    PERFORMER "Little River Band"
    ISRC GASBF0401256
    INDEX 01 41:55:53
  TRACK 11 AUDIO
    TITLE "It's Not A Wonder"
    PERFORMER "Little River Band"
    ISRC GASBF0401256
    INDEX 01 46:05:42
  TRACK 12 AUDIO
    TITLE "I think I Left My Heart With You"
    PERFORMER "Little River Band"
    ISRC GASBF0401258
    INDEX 01 50:44:10
  TRACK 13 AUDIO
    TITLE "Cool Change"
    PERFORMER "Little River Band"
    ISRC GASBF0401259
    INDEX 01 54:38:25
  TRACK 14 AUDIO
    TITLE "Lady"
    PERFORMER "Little River Band"
    ISRC GASBF0401259
    INDEX 01 60:35:42
Код:
-----------------------
DON'T MODIFY THIS FILE
-----------------------
PERFORMER: auCDtect Task Manager, ver. 1.5.1RC4 build 1.5.1.5
Copyright (c) 2008-2010 y-soft. All rights reserved
[url=http://y-soft.org]http://y-soft.org[/url]
ANALYZER: auCDtect: CD records authenticity detector, version 0.8.2
Copyright (c) 2004 Oleg Berngardt. All rights reserved.
Copyright (c) 2004 Alexander Djourik. All rights reserved.
FILE: Little River Band - One Night In Mississippi.wv
  Size: 474167226 Hash: 6FB9194AE1DF4F2FCBFF5E47BBF08022 Accuracy: -m8
  Conclusion: CDDA 100%
  Signature: 6FC9F2AA5DAE353355C89EB00785FA811CDED6CD
Доп. информация:
Правила, инструкции, FAQ!!!
Торрент  Добавлен [26 мар 2019, 20:12] Скачать торрент Магнет ссылка
Скачать торрент
[ Размер 19.25 КБ / Просмотров 1 ]

Статус
Проверен 
 
Размер  465.86 МБ
Приватный: Нет (DHT включён)
.torrent скачан  0
 


     Отправить личное сообщение
   
Страница 1 из 1
Показать сообщения за:  Поле сортировки  
Начать новую тему Ответить на тему


Сейчас этот форум просматривают: нет зарегистрированных пользователей и гости: 0


Вы не можете начинать темы
Вы не можете отвечать на сообщения
Вы не можете редактировать свои сообщения
Вы не можете удалять свои сообщения
Вы не можете добавлять вложения

Перейти:  
cron