Начать новую тему Ответить на тему
Статистика раздачи
Размер: 5.19 ГБ | Добавлен: 27 июн 2020, 19:10 | Скачали: 0
Сидеров: 0  [0 байт/сек]    Личеров: 0  [0 байт/сек]
Пред. тема | След. тема 

Автор
Сообщение

СообщениеДобавлено: 27 июн 2020, 19:10 

Ответить с цитатой 


Shalom Hanoch - Коллекция - 7 альбомов - 1977-2011


Икона и легенда, поэт и композитор, самый влиятельный рокер Израиля, полвека на сцене
Страна исполнителя: Israel
Жанр: Soft Rock || Аудио кодек: FLAC || Тип рипа: (tracks + .cue) || Битрейт аудио: lossless || Включает: Full artwork || Общая длительность: 12:06:08 || Источник : Моя коллекция, мой рип (кроме 1977)
1970 - Arik Einstein, Shalom Hanoch - Plastiline (פלסטלינה)
1970 - Arik Einstein, Shalom Chanoch - Shablool (שבלול)
1971 - Shalom Hanoch - Shalom
1976 - Tamouz - The Orange Season Is Over
1977 - Shalom Hanoch - A Man Within Himself (אדם בתוך עצמו)
1978 - Shalom Hanoch - In Concert (בהופעה חיה)
1979 - Arik Einstein, Shalom Hanoch - In Concert (בהופעה משותפת)
1981 - Shalom Hanoch - White Wedding (חתונה לבנה)
1983 - Shalom Hanoch - On The Face Of The Earth (על פני האדמה)
1985 - Shalom Hanoch - Waiting For Messiah (מחכים למשיח)
1988 - Shalom Hanoch - Only Human (רק בן אדם)
1989 - Shalom Hanoch - Shalom Hanoch Live (רומן אמיתי)
1991 - Shalom Hanoch - This Time Around (בגילגול הזה)
1994 - Shalom Hanoch - Vi-o-lence (א-לי-מות)
1997 - Shalom Hanoch - Evening Evening (ערב ערב)
1999 - Arik Einstein, Shalom Hanoch - Muscat ‎(מוּסְקָט)
2003 - Shalom Hanoch - Israeli Light (אור ישראלי)
2004 - Shalom Hanoch - Exit (יציאה)
2005 - Shalom Hanoch - In Keisaria (בקיסריה)
2009 - Shalom Hanoch - Shalom Hanoch (שלום חנוך)
2011 - Shalom Hanoch - ‏4 תחנות
2015 - Shalom Hanoch - המקרה והטעות
2016 - Shalom Hanoch - Zoom (זום)
Compilations
1988 - Shalom Hanoch - Lul (מערכונים מתוך פס-קול הסרט לול)
1992 - Shalom Hanoch - Can't Sleep Now (לא יכול לישון עכשיו)
2003 - Shalom Hanoch - From Songs Of Shalom Hanoch (משירי שלום חנוך חלק ב'‏)
2004 - Shalom Hanoch - הקופסא
2006 - Shalom Hanoch - The Best Of (המיטב)
2013 - Shalom Hanoch - Original Albums (האלבומים המקוריים)
Arik Einstein - Collection - 17 альбомов - 1970-1996, FLAC (tracks+.cue), lossless
Arik Einstein - Collection - 17 альбомов - 1970-1996, FLAC (tracks+.cue), lossless
Shalom Hanoch & Hookfoot - Shalom - 1971 (DJM Records), MP3, VBR2
Tamouz - The Orange Season Is Over - 1976 (2006 NMC), FLAC (tracks+.cue), lossless
В этой коллекции
Shalom Hanoch - In Concert - 1978, MP3, 320 kbps
.............
.............
.............
.............
.............
В этой коллекции
.............
В этой коллекции
В этой коллекции
.............
В этой коллекции
В этой коллекции
.............
.............
В этой коллекции
.............
.............
Compilations
Arik Einstein - Collection - 17 альбомов - 1970-1996, FLAC (tracks+.cue), lossless
В этой коллекции
.............
.............
.............
.............[/spoiler][/spoiler]
Если бы Шалом Ханох продолжал следующие альбомы в том же духе - он никогда не стал бы многоальбомной звездой и иконой... Но тогда я бы собирал все его альбомы (хотя их наверняка было бы намного меньше).
С песнями из нового альбома Ханох вызвал фурор на фестивале в Невиоте в октябре 1977. Часть песен была написана под впечатлением скитаний и отчужденности, которую Ханох испытывал в Лондоне; песни длинные, сложные и преимущественно печальные: «hашвита» («Забастовка») на слова Меира Ариэля длилась почти 7 минут, «Лейлот шкетим» («Тихие ночи») – около 8 минут, а «Тиюль ле Яфо» («Прогулка в Яффо») представляла собой10-минутный набор размышлений о жизни, браке, славе и т. п. Этот альбом был издан в более мягкой, менее роковой обработке, чем у «Тамуза», в соответствии с подходом Ханоха, который сказал: «Рок делают вместе, а я хотел быть более личным…»

Жанр: Acoustic, Classic Rock, Blues Rock
Носитель: CD
Страна-производитель диска (релиза): Israel
Год издания оригинала: 1977
Год переиздания: 2002
Издатель (лейбл): NMC
Номер по каталогу: 81902-2 NMCX
Дата / место записи: Triton Studios
Аудио кодек: FLAC (*.flac)
Тип рипа: (tracks + .cue)
Битрейт аудио: lossless
Наличие сканов в содержимом раздачи: full scans (From Discogs)
Источник (релизер): REDacted
Трэклист:
1. שביתה = Забастовка [Lyrics By – M. Ariel] - 6:52
2. טיול ליפו = Скуттер - 10:18
3. לילות שקטים = Тихие ночи - 7:44
4. אדם בתוך עצמו = Человек внутри самого себя - 7:37
5. עיר זרה = Чужой город - 5:30
6 . שעונים = Часы - 6:35
7. בואי לרקוד = Давай потанцуем [Lyrics By – D. Ben Zeev, M. Ariel, S. Hanoch, Y. Rotblit] - 5:37
Bonus Track (Recorded by Tommy Friedman in Tommy's house, 14.8.2000, Goshen, United States)
8. כל פעם קצת יותר = Every Time Just A Little More - 3:26
Код:
Exact Audio Copy V0.99 prebeta 4 from 23. January 2008
EAC extraction logfile from 29. May 2009, 0:25
щмен зрек / агн бъек тцое
Used drive  : HL-DT-STDVD-RAM GSA-H60L   Adapter: 3  ID: 0
Read mode               : Secure
Utilize accurate stream : Yes
Defeat audio cache      : Yes
Make use of C2 pointers : No
Read offset correction                      : 667
Overread into Lead-In and Lead-Out          : No
Fill up missing offset samples with silence : Yes
Delete leading and trailing silent blocks   : No
Null samples used in CRC calculations       : Yes
Used interface                              : Native Win32 interface for Win NT & 2000
Gap handling                                : Appended to previous track
Used output format              : User Defined Encoder
Selected bitrate                : 320 kBit/s
Quality                         : High
Add ID3 tag                     : No
Command line compressor         : C:\Program Files\FLAC\flac.exe
Additional command line options : -V -8 -T "artist=%a" -T "title=%t" -T "album=%g" -T "date=%y" -T "tracknumber=%n" -T "genre=%m" %s
TOC of the extracted CD
     Track |   Start  |  Length  | Start sector | End sector
    ---------------------------------------------------------
        1  |  0:00.00 |  6:50.08 |         0    |    30757
        2  |  6:50.08 | 10:14.70 |     30758    |    76877
        3  | 17:05.03 |  7:38.01 |     76878    |   111228
        4  | 24:43.04 |  7:17.11 |    111229    |   144014
        5  | 32:00.15 |  5:32.63 |    144015    |   168977
        6  | 37:33.03 |  7:07.02 |    168978    |   201004
        7  | 44:40.05 |  5:42.30 |    201005    |   226684
        8  | 50:22.35 |  3:24.13 |    226685    |   241997
Track  1
     Filename C:\щереъ\what.cd\Flac\щмен зрек\щмен зрек - агн бъек тцое (1977) [25 щрд тн щйш берес]\01 - щбйъд.wav
     Pre-gap length  0:00:02.00
     Peak level 100.0 %
     Track quality 99.9 %
     Test CRC B461B944
     Copy CRC B461B944
     Track not present in AccurateRip database
     Copy OK
Track  2
     Filename C:\щереъ\what.cd\Flac\щмен зрек\щмен зрек - агн бъек тцое (1977) [25 щрд тн щйш берес]\02 - ийем мйфе.wav
     Pre-gap length  0:00:00.64
     Peak level 100.0 %
     Track quality 100.0 %
     Test CRC BD343886
     Copy CRC BD343886
     Track not present in AccurateRip database
     Copy OK
Track  3
     Filename C:\щереъ\what.cd\Flac\щмен зрек\щмен зрек - агн бъек тцое (1977) [25 щрд тн щйш берес]\03 - мймеъ щчийн.wav
     Pre-gap length  0:00:01.12
     Peak level 100.0 %
     Track quality 100.0 %
     Test CRC EFE489B6
     Copy CRC EFE489B6
     Track not present in AccurateRip database
     Copy OK
Track  4
     Filename C:\щереъ\what.cd\Flac\щмен зрек\щмен зрек - агн бъек тцое (1977) [25 щрд тн щйш берес]\04 - агн бъек тцое.wav
     Pre-gap length  0:00:02.01
     Peak level 100.0 %
     Track quality 100.0 %
     Test CRC B1137955
     Copy CRC B1137955
     Track not present in AccurateRip database
     Copy OK
Track  5
     Filename C:\щереъ\what.cd\Flac\щмен зрек\щмен зрек - агн бъек тцое (1977) [25 щрд тн щйш берес]\05 - тйш жшд.wav
     Pre-gap length  0:00:00.32
     Peak level 100.0 %
     Track quality 100.0 %
     Test CRC F0F15B0C
     Copy CRC F0F15B0C
     Track not present in AccurateRip database
     Copy OK
Track  6
     Filename C:\щереъ\what.cd\Flac\щмен зрек\щмен зрек - агн бъек тцое (1977) [25 щрд тн щйш берес]\06 - щтерйн.wav
     Pre-gap length  0:00:01.58
     Peak level 100.0 %
     Track quality 99.9 %
     Test CRC 1992E391
     Copy CRC 1992E391
     Track not present in AccurateRip database
     Copy OK
Track  7
     Filename C:\щереъ\what.cd\Flac\щмен зрек\щмен зрек - агн бъек тцое (1977) [25 щрд тн щйш берес]\07 - беай мшчег.wav
     Pre-gap length  0:00:01.52
     Peak level 100.0 %
     Track quality 100.0 %
     Test CRC 01E85CA1
     Copy CRC 01E85CA1
     Track not present in AccurateRip database
     Copy OK
Track  8
     Filename C:\щереъ\what.cd\Flac\щмен зрек\щмен зрек - агн бъек тцое (1977) [25 щрд тн щйш берес]\08 - лм фтн чцъ йеъш.wav
     Pre-gap length  0:00:05.09
     Peak level 63.1 %
     Track quality 100.0 %
     Test CRC A4A3BE7F
     Copy CRC A4A3BE7F
     Track not present in AccurateRip database
     Copy OK
None of the tracks are present in the AccurateRip database
No errors occurred
End of status report
Код:
REM GENRE Rock
REM DATE 1977
REM DISCID 5C0C9A08
REM COMMENT "ExactAudioCopy v0.99pb4"
PERFORMER "שלום חנוך"
TITLE "אדם בתוך עצמו"
FILE "01 - שביתה.wav" WAVE
  TRACK 01 AUDIO
    TITLE "שביתה"
    PERFORMER "שלום חנוך"
    INDEX 01 00:00:00
  TRACK 02 AUDIO
    TITLE "טיול ליפו"
    PERFORMER "שלום חנוך"
    INDEX 00 06:49:35
FILE "02 - טיול ליפו.wav" WAVE
    INDEX 01 00:00:00
  TRACK 03 AUDIO
    TITLE "לילות שקטים"
    PERFORMER "שלום חנוך"
    INDEX 00 10:13:61
FILE "03 - לילות שקטים.wav" WAVE
    INDEX 01 00:00:00
  TRACK 04 AUDIO
    TITLE "אדם בתוך עצמו"
    PERFORMER "שלום חנוך"
    INDEX 00 07:36:00
FILE "04 - אדם בתוך עצמו.wav" WAVE
    INDEX 01 00:00:00
  TRACK 05 AUDIO
    TITLE "עיר זרה"
    PERFORMER "שלום חנוך"
    INDEX 00 07:16:62
FILE "05 - עיר זרה.wav" WAVE
    INDEX 01 00:00:00
  TRACK 06 AUDIO
    TITLE "שעונים"
    PERFORMER "שלום חנוך"
    INDEX 00 05:31:19
FILE "06 - שעונים.wav" WAVE
    INDEX 01 00:00:00
  TRACK 07 AUDIO
    TITLE "בואי לרקוד"
    PERFORMER "שלום חנוך"
    INDEX 00 07:05:38
FILE "07 - בואי לרקוד.wav" WAVE
    INDEX 01 00:00:00
  TRACK 08 AUDIO
    TITLE "כל פעם קצת יותר"
    PERFORMER "שלום חנוך"
    INDEX 00 05:37:23
FILE "08 - כל פעם קצת יותר.wav" WAVE
    INDEX 01 00:00:00
Код:
-----------------------
DON'T MODIFY THIS FILE
-----------------------
PERFORMER: auCDtect Task Manager, ver. 1.6.0 RC1 build 1.6.0.1
Copyright (c) 2008-2010 y-soft. All rights reserved
[url=http://y-soft.org]http://y-soft.org[/url]
ANALYZER: auCDtect: CD records authenticity detector, version 0.8.2
Copyright (c) 2004 Oleg Berngardt. All rights reserved.
Copyright (c) 2004 Alexander Djourik. All rights reserved.
FILE: 08 - כל פעם קצת יותר.flac
  Size: 18446512 Hash: 65B0032A72B4BB3DF0187FC2E2A6014E Accuracy: -m0
  Conclusion: CDDA 100%
  Signature: 19E464154F4CBBC380B151144F55EB1A6EFC3774
FILE: 07 - בואי לרקוד.flac
  Size: 40367909 Hash: 6054043ECA94028B9F6493A31AFB1FBC Accuracy: -m0
  Conclusion: CDDA 100%
  Signature: AA3DE34B9780ED80C4C8F87193BA7E8BC9757EEE
FILE: 06 - שעונים.flac
  Size: 49204401 Hash: F5A990A1EC1B15E5843E93ED81F4D2D0 Accuracy: -m0
  Conclusion: CDDA 100%
  Signature: C91215415B467D232416FC4E0F074F8F37359E17
FILE: 05 - עיר זרה.flac
  Size: 36244762 Hash: 5E8756EE700EEA17069660118ABAEED9 Accuracy: -m0
  Conclusion: CDDA 43%
  Signature: 03BF4B2A717A488B96EF2B1C4C978B255FB49C87
FILE: 04 - אדם בתוך עצמו.flac
  Size: 46406721 Hash: AF487F08764CDC5612120BA024AFE1E6 Accuracy: -m0
  Conclusion: CDDA 100%
  Signature: 460DA2BDD13523738D092B22628C0075CEDF2CE5
FILE: 03 - לילות שקטים.flac
  Size: 54020519 Hash: 2B3AB2A4554F80FC305544009E04E3CD Accuracy: -m0
  Conclusion: CDDA 100%
  Signature: 1E63C7E6A4D173CF9DB84DF0E97B478C15E93F4F
FILE: 02 - טיול ליפו.flac
  Size: 65419704 Hash: 6270A00F1560430C1349DFE6AE2FD234 Accuracy: -m0
  Conclusion: CDDA 62%
  Signature: F3D8B4E32D517C0F8D4ECF0B6036DDA275483AE8
FILE: 01 - שביתה.flac
  Size: 48720696 Hash: 20931356B8F38090FE2F8774A5CD12BC Accuracy: -m0
  Conclusion: CDDA 100%
  Signature: 02AE03F62803FCE974E69B4D50CEF3FF485F7208
Код:
[CUETools log; Date: 3/7/2019 8:54:19 PM; Version: 2.1.5]
[CTDB TOCID: pskFVxiyHP_fJvxg6yhAN1f9XWI-] found.
Track | CTDB Status
  1   | (3/3) Accurately ripped
  2   | (3/3) Accurately ripped
  3   | (3/3) Accurately ripped
  4   | (2/3) Accurately ripped
  5   | (2/3) Accurately ripped
  6   | (2/3) Accurately ripped
  7   | (3/3) Accurately ripped
  8   | (2/3) Accurately ripped
[AccurateRip ID: 0012558a-00781443-5c0c9a08] found.
Track   [  CRC   |   V2   ] Status
 01     [d2d6e291|ace4fba5] (0+2/2) Accurately ripped
 02     [92846309|8b04a00a] (0+2/2) Accurately ripped
 03     [59f84165|3a34f2aa] (0+2/2) Accurately ripped
 04     [e363571d|df15fbee] (0+2/2) Accurately ripped
 05     [6ab59041|297e1e73] (0+2/2) Accurately ripped
 06     [31c28609|e64e2431] (0+2/2) Accurately ripped
 07     [13f32acf|eb8b65a3] (0+2/2) Accurately ripped
 08     [f769ee32|f17df820] (0+2/2) Accurately ripped
Track Peak [ CRC32  ] [W/O NULL] [  LOG   ]
 --  100.0 [AE16974A] [947133AB]
 01  100.0 [B461B944] [176E28BE]   CRC32
 02  100.0 [BD343886] [748ED974]   CRC32
 03  100.0 [EFE489B6] [330ED9F7]   CRC32
 04  100.0 [B1137955] [EA488539]   CRC32
 05  100.0 [F0F15B0C] [C495F839]   CRC32
 06  100.0 [1992E391] [CA529A0C]   CRC32
 07  100.0 [01E85CA1] [16093127]   CRC32
 08   63.0 [A4A3BE7F] [5FA11094]   CRC32
Код:
foobar2000 1.3.10 / Замер динамического диапазона (DR) 1.1.1
Дата отчёта:  2019-03-07 06:54:11
--------------------------------------------------------------------------------
Анализ:   שלום חנוך / אדם בתוך עצמו
--------------------------------------------------------------------------------
DR         Пики         RMS           Продолжительность трека
--------------------------------------------------------------------------------
DR8        0.00 дБ    -9.34 дБ      6:50 01-שביתה
DR9        0.00 дБ   -11.77 дБ     10:15 02-טיול ליפו
DR8        0.00 дБ    -9.83 дБ      7:38 03-לילות שקטים
DR10       0.00 дБ   -11.98 дБ      7:17 04-אדם בתוך עצמו
DR11       0.00 дБ   -13.78 дБ      5:33 05-עיר זרה
DR10       0.00 дБ   -11.49 дБ      7:07 06-שעונים
DR8        0.00 дБ   -10.49 дБ      5:42 07-בואי לרקוד
DR8       -4.00 дБ   -15.04 дБ      3:24 08-כל פעם קצת יותר
--------------------------------------------------------------------------------
Количество треков: 8
Реальные значения DR: DR9
Частота:   44100 Гц
Каналов:   2
Разрядность:   16
Битрейт:   722 кбит/с
Кодек:   FLAC
================================================================================

Bass, Vocals – Ohad Inger
Drums – Alon Hilel
Guitar – Haim Kario (1-7)
Guitar – David Brozo (8 only)
Piano – Alona Turel
Producer – Louis Lahav
Vocals, Guitar – Shalom Hanoch
Written-By – S. Hanoch

#777Жанр: Soft Rock, Classic Rock, Blues Rock
Носитель: CD (Live)
Страна-производитель диска (релиза): Israel
Год издания оригинала: 1989
Издатель (лейбл): NMC
Номер по каталогу: 462887-2
Аудио кодек: FLAC (.flac)
Тип рипа: (tracks + .cue)
Битрейт аудио: lossless
Наличие сканов в содержимом раздачи: full scans, png, 300 dpi
Источник (релизер): Моя коллекция, мой рип
Трэклист:
1 רומן אמיתי = A True Romance 5:06
2 תאונה = Accident 4:28
3 בלי לומר מילה = Without A Word 5:02
4 כי האדם עץ השדה = Like A Tree In A Field 5:56
5 כמה טוב שבאת הביתה = You Are Back Home 6:38
6 חתונה לבנה = White Wedding 6:03
7 כדי לחיות = In Order To Live 7:35
8 לא יודע איך לומר לך = How To Say To You 4:52
9 מחכים למשיח = Waiting For Messiah 6:18
10 תפסתי ראש על הבר = Bar Song 7:35
11 סוף עונת התפוזים = The End Of The Orange Season 5:05
Lyrics By – M. Ariel (tracks: 11), N. Zach (tracks: 4), Shalom Hanoch (tracks: 1 to 3, 6 to 11), Y. Rotblit (tracks: 5)
Music By – A. Zilber (tracks: 11)
Music By [All Songs] – Shalom Hanoch
Код:
Exact Audio Copy V1.3 from 2. September 2016
EAC extraction logfile from 7. April 2019, 9:55
שלום חנוך / שלום חנוך בהופעה
Used drive  : HL-DT-STDVDRAM GSA-T50N   Adapter: 1  ID: 0
Read mode               : Secure
Utilize accurate stream : Yes
Defeat audio cache      : Yes
Make use of C2 pointers : No
Read offset correction                      : 667
Overread into Lead-In and Lead-Out          : No
Fill up missing offset samples with silence : Yes
Delete leading and trailing silent blocks   : No
Null samples used in CRC calculations       : Yes
Used interface                              : Native Win32 interface for Win NT & 2000
Gap handling                                : Appended to previous track
Used output format              : User Defined Encoder
Selected bitrate                : 1024 kBit/s
Quality                         : High
Add ID3 tag                     : No
Command line compressor         : C:\Program Files\Exact Audio Copy\Flac\flac.exe
Additional command line options : -V -8 -T "Genre=%genre%" -T "Artist=%artist%" -T "Title=%title%" -T "Album=%albumtitle%" -T "Date=%year%" -T "Tracknumber=%tracknr%" %source% -o %dest%
TOC of the extracted CD
     Track |   Start  |  Length  | Start sector | End sector
    ---------------------------------------------------------
        1  |  0:00.00 |  5:05.62 |         0    |    22936
        2  |  5:05.62 |  4:28.23 |     22937    |    43059
        3  |  9:34.10 |  5:01.42 |     43060    |    65676
        4  | 14:35.52 |  5:55.68 |     65677    |    92369
        5  | 20:31.45 |  6:37.42 |     92370    |   122186
        6  | 27:09.12 |  6:02.58 |    122187    |   149394
        7  | 33:11.70 |  7:34.47 |    149395    |   183491
        8  | 40:46.42 |  4:52.35 |    183492    |   205426
        9  | 45:39.02 |  6:17.40 |    205427    |   233741
       10  | 51:56.42 |  7:34.55 |    233742    |   267846
       11  | 59:31.22 |  5:04.40 |    267847    |   290686
Track  1
     Filename C:\music\MG rips\שלום חנוך  - שלום חנוך בהופעה - 1989\01 - רומן אמיתי.wav
     Pre-gap length  0:00:02.00
     Peak level 91.8 %
     Extraction speed 2.5 X
     Track quality 100.0 %
     Test CRC 68C160CA
     Copy CRC 68C160CA
     Cannot be verified as accurate (confidence 2)  [FC4B4D47], AccurateRip returned [440DA163]  (AR v2)
     Copy OK
Track  2
     Filename C:\music\MG rips\שלום חנוך  - שלום חנוך בהופעה - 1989\02 - תאונה.wav
     Peak level 98.5 %
     Extraction speed 2.8 X
     Track quality 100.0 %
     Test CRC 7479D2D1
     Copy CRC 7479D2D1
     Cannot be verified as accurate (confidence 2)  [CF0F0C05], AccurateRip returned [1E4465E6]  (AR v2)
     Copy OK
Track  3
     Filename C:\music\MG rips\שלום חנוך  - שלום חנוך בהופעה - 1989\03 - בלי לומר מילה.wav
     Peak level 90.6 %
     Extraction speed 3.1 X
     Track quality 100.0 %
     Test CRC F0008B26
     Copy CRC F0008B26
     Cannot be verified as accurate (confidence 2)  [F7F50E62], AccurateRip returned [052F703A]  (AR v2)
     Copy OK
Track  4
     Filename C:\music\MG rips\שלום חנוך  - שלום חנוך בהופעה - 1989\04 - כי האדם עץ השדה.wav
     Peak level 92.1 %
     Extraction speed 3.1 X
     Track quality 99.9 %
     Test CRC 7724F479
     Copy CRC 7724F479
     Cannot be verified as accurate (confidence 2)  [5FE737AF], AccurateRip returned [64A25037]  (AR v2)
     Copy OK
Track  5
     Filename C:\music\MG rips\שלום חנוך  - שלום חנוך בהופעה - 1989\05 - כמה טוב שבאת הביתה.wav
     Peak level 91.4 %
     Extraction speed 3.8 X
     Track quality 100.0 %
     Test CRC 5E5F51F1
     Copy CRC 5E5F51F1
     Cannot be verified as accurate (confidence 1)  [D01645D4], AccurateRip returned [4236E7DC]  (AR v2)
     Copy OK
Track  6
     Filename C:\music\MG rips\שלום חנוך  - שלום חנוך בהופעה - 1989\06 - חתונה לבנה.wav
     Peak level 91.8 %
     Extraction speed 4.0 X
     Track quality 100.0 %
     Test CRC 241BE014
     Copy CRC 241BE014
     Cannot be verified as accurate (confidence 2)  [61A6CA02], AccurateRip returned [4C93E3BD]  (AR v2)
     Copy OK
Track  7
     Filename C:\music\MG rips\שלום חנוך  - שלום חנוך בהופעה - 1989\07 - כדי לחיות.wav
     Peak level 91.5 %
     Extraction speed 4.4 X
     Track quality 100.0 %
     Test CRC 64E8DF17
     Copy CRC 64E8DF17
     Cannot be verified as accurate (confidence 2)  [6EE48318], AccurateRip returned [327CD3CB]  (AR v2)
     Copy OK
Track  8
     Filename C:\music\MG rips\שלום חנוך  - שלום חנוך בהופעה - 1989\08 - לא יודע איך לומר לך.wav
     Peak level 92.9 %
     Extraction speed 4.0 X
     Track quality 99.9 %
     Test CRC 1D414AF6
     Copy CRC 1D414AF6
     Cannot be verified as accurate (confidence 2)  [D9EB7F10], AccurateRip returned [673163C2]  (AR v2)
     Copy OK
Track  9
     Filename C:\music\MG rips\שלום חנוך  - שלום חנוך בהופעה - 1989\09 - מחכים למשיח.wav
     Peak level 93.9 %
     Extraction speed 4.8 X
     Track quality 100.0 %
     Test CRC 6EBDB50B
     Copy CRC 6EBDB50B
     Cannot be verified as accurate (confidence 2)  [09F3281A], AccurateRip returned [749B2428]  (AR v2)
     Copy OK
Track 10
     Filename C:\music\MG rips\שלום חנוך  - שלום חנוך בהופעה - 1989\10 - תפסתי ראש על הבר.wav
     Peak level 94.1 %
     Extraction speed 5.0 X
     Track quality 100.0 %
     Test CRC A65E7575
     Copy CRC A65E7575
     Cannot be verified as accurate (confidence 2)  [14D51E23], AccurateRip returned [61D8442A]  (AR v2)
     Copy OK
Track 11
     Filename C:\music\MG rips\שלום חנוך  - שלום חנוך בהופעה - 1989\11 - סוף עונת התפוזים.wav
     Peak level 98.1 %
     Extraction speed 4.0 X
     Track quality 100.0 %
     Test CRC 695B5C4A
     Copy CRC 695B5C4A
     Cannot be verified as accurate (confidence 2)  [BF94C754], AccurateRip returned [E7F2E5E3]  (AR v2)
     Copy OK
No tracks could be verified as accurate
You may have a different pressing from the one(s) in the database
No errors occurred
End of status report
==== Log checksum 1FCD0AB6FE76A52B1E72D3F71F0608C1981AB4580B5519D946256639A35CBE59 ====
Код:
REM GENRE Rock
REM DATE 1989
REM DISCID 9C0F240B
REM COMMENT "ExactAudioCopy v1.3"
PERFORMER "שלום חנוך"
TITLE "שלום חנוך בהופעה"
REM COMPOSER ""
FILE "01 - רומן אמיתי.wav" WAVE
  TRACK 01 AUDIO
    TITLE "רומן אמיתי"
    PERFORMER "שלום חנוך"
    REM COMPOSER ""
    INDEX 01 00:00:00
FILE "02 - תאונה.wav" WAVE
  TRACK 02 AUDIO
    TITLE "תאונה"
    PERFORMER "שלום חנוך"
    REM COMPOSER ""
    INDEX 01 00:00:00
FILE "03 - בלי לומר מילה.wav" WAVE
  TRACK 03 AUDIO
    TITLE "בלי לומר מילה"
    PERFORMER "שלום חנוך"
    REM COMPOSER ""
    INDEX 01 00:00:00
FILE "04 - כי האדם עץ השדה.wav" WAVE
  TRACK 04 AUDIO
    TITLE "כי האדם עץ השדה"
    PERFORMER "שלום חנוך"
    REM COMPOSER ""
    INDEX 01 00:00:00
FILE "05 - כמה טוב שבאת הביתה.wav" WAVE
  TRACK 05 AUDIO
    TITLE "כמה טוב שבאת הביתה"
    PERFORMER "שלום חנוך"
    REM COMPOSER ""
    INDEX 01 00:00:00
FILE "06 - חתונה לבנה.wav" WAVE
  TRACK 06 AUDIO
    TITLE "חתונה לבנה"
    PERFORMER "שלום חנוך"
    REM COMPOSER ""
    INDEX 01 00:00:00
FILE "07 - כדי לחיות.wav" WAVE
  TRACK 07 AUDIO
    TITLE "כדי לחיות"
    PERFORMER "שלום חנוך"
    REM COMPOSER ""
    INDEX 01 00:00:00
FILE "08 - לא יודע איך לומר לך.wav" WAVE
  TRACK 08 AUDIO
    TITLE "לא יודע איך לומר לך"
    PERFORMER "שלום חנוך"
    REM COMPOSER ""
    INDEX 01 00:00:00
FILE "09 - מחכים למשיח.wav" WAVE
  TRACK 09 AUDIO
    TITLE "מחכים למשיח"
    PERFORMER "שלום חנוך"
    REM COMPOSER ""
    INDEX 01 00:00:00
FILE "10 - תפסתי ראש על הבר.wav" WAVE
  TRACK 10 AUDIO
    TITLE "תפסתי ראש על הבר"
    PERFORMER "שלום חנוך"
    REM COMPOSER ""
    INDEX 01 00:00:00
FILE "11 - סוף עונת התפוזים.wav" WAVE
  TRACK 11 AUDIO
    TITLE "סוף עונת התפוזים"
    PERFORMER "שלום חנוך"
    REM COMPOSER ""
    INDEX 01 00:00:00
Код:
[CUETools log; Date: 4/19/2019 8:37:19 PM; Version: 2.1.5]
CDDBId mismatch: 9C0F240B vs 9D0F230B
[CTDB TOCID: e8qzf0WMEkETqUm33LIdl5eX.nM-] found.
Track | CTDB Status
  1   | (3/4) Accurately ripped, or (1/4) differs in 3655 samples @00:00:12-00:00:16
  2   | (4/4) Accurately ripped
  3   | (4/4) Accurately ripped
  4   | (4/4) Accurately ripped
  5   | (4/4) Accurately ripped
  6   | (4/4) Accurately ripped
  7   | (4/4) Accurately ripped
  8   | (4/4) Accurately ripped
  9   | (4/4) Accurately ripped
 10   | (4/4) Accurately ripped
 11   | (4/4) Accurately ripped
[AccurateRip ID: 00199615-00e1549c-9d0f230b] found.
Track   [  CRC   |   V2   ] Status
 01     [57eaa5b6|fc4b4d47] (0+0/2) No match
 02     [77769474|cf0f0c05] (0+0/2) No match
 03     [d20eca30|f7f50e62] (0+0/2) No match
 04     [bc1be4c0|5fe737af] (0+0/2) No match
 05     [ef9ef966|d01645d4] (0+0/3) No match
 06     [e3285cda|61a6ca02] (0+0/2) No match
 07     [055a8fde|6ee48318] (0+0/2) No match
 08     [3a8865fd|d9eb7f10] (0+0/2) No match
 09     [b9216682|09f3281a] (0+0/2) No match
 10     [b0b609d1|14d51e23] (0+0/2) No match
 11     [039e9b23|bf94c754] (0+0/2) No match
Offsetted by 605:
 01     [440da163] (2/2) Accurately ripped
 02     [1e4465e6] (2/2) Accurately ripped
 03     [052f703a] (2/2) Accurately ripped
 04     [64a25037] (2/2) Accurately ripped
 05     [900c0c08] (1/3) Accurately ripped
 06     [4c93e3bd] (2/2) Accurately ripped
 07     [327cd3cb] (2/2) Accurately ripped
 08     [673163c2] (2/2) Accurately ripped
 09     [749b2428] (2/2) Accurately ripped
 10     [61d8442a] (2/2) Accurately ripped
 11     [e7f2e5e3] (2/2) Accurately ripped
Offsetted by 1335:
 01     [d8947345] (0/2) No match
 02     [66a9c7d9] (0/2) No match
 03     [c07f02f0] (0/2) No match
 04     [9414db23] (0/2) No match
 05     [a8d81b5e] (1/3) Accurately ripped
 06     [c41a8926] (0/2) No match
 07     [6d53738b] (0/2) No match
 08     [67291f58] (0/2) No match
 09     [40a49538] (0/2) No match
 10     [eb59667a] (0/2) No match
 11     [0dc5fc97] (0/2) No match
Track Peak [ CRC32  ] [W/O NULL] [  LOG   ]
 --   98.5 [4EF7C7F8] [6AC9EA6E]
 01   91.8 [68C160CA] [2B0656C9]   CRC32
 02   98.5 [7479D2D1] [9C4BE89E]   CRC32
 03   90.6 [F0008B26] [15577B70]   CRC32
 04   92.1 [7724F479] [291AD64E]   CRC32
 05   91.4 [5E5F51F1] [E53DAD60]   CRC32
 06   91.8 [241BE014] [FBF3FD64]   CRC32
 07   91.5 [64E8DF17] [F9AA59BB]   CRC32
 08   92.9 [1D414AF6] [9E80CD27]   CRC32
 09   93.9 [6EBDB50B] [BA7D155C]   CRC32
 10   94.1 [A65E7575] [B6463C3A]   CRC32
 11   98.1 [695B5C4A] [BAB6A899]   CRC32
Код:
foobar2000 1.3.10 / Замер динамического диапазона (DR) 1.1.1
Дата отчёта:  2019-04-19 20:37:20
--------------------------------------------------------------------------------
Анализ:   שלום חנוך / שלום חנוך בהופעה
--------------------------------------------------------------------------------
DR         Пики         RMS           Продолжительность трека
--------------------------------------------------------------------------------
DR11      -0.74 дБ   -13.67 дБ      5:06 01-רומן אמיתי
DR11      -0.13 дБ   -12.27 дБ      4:28 02-תאונה
DR12      -0.86 дБ   -16.77 дБ      5:02 03-בלי לומר מילה
DR13      -0.71 дБ   -16.60 дБ      5:56 04-כי האדם עץ השדה
DR12      -0.78 дБ   -16.97 дБ      6:38 05-כמה טוב שבאת הביתה
DR12      -0.74 дБ   -15.06 дБ      6:03 06-חתונה לבנה
DR13      -0.76 дБ   -16.55 дБ      7:35 07-כדי לחיות
DR11      -0.64 дБ   -13.84 дБ      4:52 08-לא יודע איך לומר לך
DR11      -0.54 дБ   -12.94 дБ      6:18 09-מחכים למשיח
DR14      -0.52 дБ   -17.11 дБ      7:35 10-תפסתי ראש על הבר
DR11      -0.16 дБ   -12.82 дБ      5:05 11-סוף עונת התפוזים
--------------------------------------------------------------------------------
Количество треков: 11
Реальные значения DR: DR12
Частота:   44100 Гц
Каналов:   2
Разрядность:   16
Битрейт:   1007 кбит/с
Кодек:   FLAC
================================================================================

Bass – Ray Peterson
Drums – Roy Martin
Electric Guitar – Ronnie Peterson
Guitar – Shalom Hanoch
Keyboards – Moshe Levi
Producer – Shmulik Borenstein
Producer [Musical Production], Arranged By – Moshe Levi, Shalom Hanoch
Saxophone – Jaroslav Jakubovic
Vocals – Shalom Hanoch

Правила, инструкции, FAQ!!!
Торрент  Добавлен [27 июн 2020, 19:10] Скачать торрент Магнет ссылка
Скачать торрент
[ Размер 63.53 КБ / Просмотров 2 ]

Статус
Проверен 
 
Размер  5.19 ГБ
Приватный: Нет (DHT включён)
.torrent скачан  0
 


     Отправить личное сообщение
   
Страница 1 из 1
Показать сообщения за:  Поле сортировки  
Начать новую тему Ответить на тему


Сейчас этот форум просматривают: нет зарегистрированных пользователей и гости: 0


Вы не можете начинать темы
Вы не можете отвечать на сообщения
Вы не можете редактировать свои сообщения
Вы не можете удалять свои сообщения
Вы не можете добавлять вложения

Перейти:  
cron