Начать новую тему Ответить на тему
Статистика раздачи
Размер: 363.52 МБ | Добавлен: 26 мар 2019, 22:37 | Скачали: 2
Сидеров: 14  [0 байт/сек]    Личеров: 0  [0 байт/сек]
Пред. тема | След. тема 

Автор
Сообщение

СообщениеДобавлено: 26 мар 2019, 22:37 

Ответить с цитатой 

Christine McVie - In The Meantime 2004, FLAC (image+cue), lossless
Жанр: Soft-rock
Год выпуска диска: 2004
Производитель диска: EU
Аудио кодек: FLAC
Тип рипа: image+.cue
Продолжительность: 50:30
Трэклист:
1 Friend
2 You Are
3 Northern Star
4 Bad Journey
5 Anything Is Possible
6 Calumny
7 So Sincere
8 Easy Come, Easy Go
9 Liar
10 Sweet Revenge
11 Forgiveness
12 Givin' It Back
Код:
Exact Audio Copy V0.99 prebeta 5 from 4. May 2009
Отчёт EAC об извлечении, выполненном 8. сентября 2009, 14:52
Christine McVie / In The Meantime
Дисковод: _NEC    DVD_RW ND-3500AG   Adapter: 1  ID: 1
Режим чтения                 : Достоверность
Использование точного потока : Да
Отключение кэша аудио        : Да
Использование указателей C2  : Нет
Коррекция смещения при чтении                     : 48
Способность читать области Lead-in и Lead-out     : Нет
Заполнение пропущенных сэмплов тишиной            : Да
Удаление блоков с тишиной в начале и конце        : Нет
При вычислениях CRC использовались нулевые сэмплы : Да
Интерфейс                                         : Встроенный Win32-интерфейс для Win NT/2000
Выходной формат          : Пользовательский кодировщик
Выбранный битрейт        : 768 kBit/s
Качество                 : Высокий
Добавление ID3-тэга      : Нет
Утилита сжатия           : C:\Program Files\Exact Audio Copy\FLAC\FLAC.EXE
Дополнительные параметры : -6 -V -T "ARTIST=%a" -T "TITLE=%t" -T "ALBUM=%g" -T "DATE=%y" -T "TRACKNUMBER=%n" -T "GENRE=%m" -T "COMMENT=%e" %s -o %d
TOC извлечённого CD
     Трек |   Старт  | Длительность | Начальный сектор | Конечный сектор
    ---------------------------------------------------------------------
       1  |  0:00.00 |    4:31.09   |           0      |      20333
       2  |  4:31.09 |    3:35.08   |       20334      |      36466
       3  |  8:06.17 |    5:22.11   |       36467      |      60627
       4  | 13:28.28 |    4:29.27   |       60628      |      80829
       5  | 17:57.55 |    3:14.56   |       80830      |      95435
       6  | 21:12.36 |    4:54.45   |       95436      |     117530
       7  | 26:07.06 |    3:39.48   |      117531      |     134003
       8  | 29:46.54 |    4:32.20   |      134004      |     154423
       9  | 34:18.74 |    3:53.47   |      154424      |     171945
      10  | 38:12.46 |    3:50.45   |      171946      |     189240
      11  | 42:03.16 |    3:44.61   |      189241      |     206101
      12  | 45:48.02 |    4:42.55   |      206102      |     227306
Характеристики диапазона извлечения и сообщения об ошибках
Выбранный диапазон
     Имя файла D:\Christine McVie-In the Meantime\Christine McVie - In The Meantime.wav
     Пиковый уровень 100.0 %
     Качество диапазона 99.6 %
     CRC копии D2741764
     Копирование... OK
Ошибок не произошло
AccurateRip: сводка
Трек  1  точность не определена (достоверность 8)  [7A95963D], AccurateRip вернул [8BDA2725]
Трек  2  точность не определена (достоверность 8)  [06C13493], AccurateRip вернул [F12B859B]
Трек  3  точность не определена (достоверность 8)  [E8654682], AccurateRip вернул [0EDB6152]
Трек  4  точность не определена (достоверность 8)  [FC40ADA6], AccurateRip вернул [5A63094E]
Трек  5  точность не определена (достоверность 8)  [2D9A5442], AccurateRip вернул [C7A0690A]
Трек  6  точность не определена (достоверность 8)  [502AC432], AccurateRip вернул [66EA1AE2]
Трек  7  точность не определена (достоверность 8)  [0F4B1478], AccurateRip вернул [0E7580A7]
Трек  8  точность не определена (достоверность 8)  [6351AE2D], AccurateRip вернул [F9DA5706]
Трек  9  точность не определена (достоверность 8)  [E863DF94], AccurateRip вернул [30687A4C]
Трек 10  точность не определена (достоверность 8)  [B868F634], AccurateRip вернул [EAEE3EF4]
Трек 11  точность не определена (достоверность 8)  [E3A158A7], AccurateRip вернул [9FC83BE7]
Трек 12  точность не определена (достоверность 8)  [361E6E75], AccurateRip вернул [1E3E8FD5]
Ни один трек не прошёл проверки на точность
В вашей базе может быть иной вариант штамповки диска
Конец отчёта
Доп. информация: Сольный альбом бывшей солистки "Fleetwood Mac".
Правила, инструкции, FAQ!!!
Торрент  Добавлен [26 мар 2019, 22:37] Скачать торрент Магнет ссылка
Скачать торрент
[ Размер 15.12 КБ / Просмотров 14 ]

Статус
Проверен 
 
Размер  363.52 МБ
Приватный: Нет (DHT включён)
.torrent скачан  2
 


     Отправить личное сообщение
   
Страница 1 из 1
Показать сообщения за:  Поле сортировки  
Начать новую тему Ответить на тему


Сейчас этот форум просматривают: нет зарегистрированных пользователей и гости: 0


Вы не можете начинать темы
Вы не можете отвечать на сообщения
Вы не можете редактировать свои сообщения
Вы не можете удалять свои сообщения
Вы не можете добавлять вложения

Перейти:  
cron