Начать новую тему Ответить на тему
Статистика раздачи
Размер: 228.3 МБ | Добавлен: 26 мар 2019, 20:52 | Скачали: 1
Сидеров: 1  [0 байт/сек]    Личеров: 0  [0 байт/сек]
Пред. тема | След. тема 

Автор
Сообщение

СообщениеДобавлено: 26 мар 2019, 20:52 

Ответить с цитатой 

Michael McDonald / No Lookin' Back
Жанр: Soft Rock/AOR/Blue-Eyed Soul
Год издания: 1985
Издатель (лейбл): Warner Bros.
Страна: USA
Аудиокодек: FLAC (*.flac)
Тип рипа: tracks+.cue
Битрейт аудио: lossless
Продолжительность: 37:09
Источник (релизер): SeDuCeR
Наличие сканов в содержимом раздачи: нет
Треклист:
01. No Lookin' Back (Michael McDonald, Kenny Loggins, Ed Sanford)
02. Bad Times (McDonald)
03. (I'll Be Your) Angel (McDonald, Chuck Sabatino)
04. By Heart (McDonald, Sabatino, David Pack)
05. Any Foolish Thing (McDonald, Sabatino)
06. Our Love (McDonald, Pack)
07. (I Hang) On Your Every Word (McDonald, Amy Holland)
08. Lost in the Parade (McDonald, Grady Walker)
09. Don't Let Me Down (McDonald)
Код:
Exact Audio Copy V0.99 prebeta 5 from 4. May 2009
EAC extraction logfile from 12. February 2010, 20:18
Michael McDonald / No Lookin' Back
Used drive  : LITE-ON DVDRW LH-20A1H   Adapter: 0  ID: 1
Read mode               : Secure
Utilize accurate stream : Yes
Defeat audio cache      : Yes
Make use of C2 pointers : No
Read offset correction                      : 6
Overread into Lead-In and Lead-Out          : No
Fill up missing offset samples with silence : Yes
Delete leading and trailing silent blocks   : No
Null samples used in CRC calculations       : Yes
Used interface                              : Native Win32 interface for Win NT & 2000
Gap handling                                : Appended to previous track
Used output format              : User Defined Encoder
Selected bitrate                : 768 kBit/s
Quality                         : High
Add ID3 tag                     : No
Command line compressor         : C:\Program Files (x86)\Exact Audio Copy\FLAC\FLAC.EXE
Additional command line options : -8 -V -T "ARTIST=%a" -T "TITLE=%t" -T "ALBUM=%g" -T "DATE=%y" -T "TRACKNUMBER=%n" -T "GENRE=%m" -T "COMMENT=%e" %s -o %d
TOC of the extracted CD
     Track |   Start  |  Length  | Start sector | End sector
    ---------------------------------------------------------
        1  |  0:00.00 |  3:57.27 |         0    |    17801
        2  |  3:57.27 |  4:21.20 |     17802    |    37396
        3  |  8:18.47 |  3:53.68 |     37397    |    54939
        4  | 12:12.40 |  4:35.55 |     54940    |    75619
        5  | 16:48.20 |  4:23.52 |     75620    |    95396
        6  | 21:11.72 |  4:30.38 |     95397    |   115684
        7  | 25:42.35 |  3:22.32 |    115685    |   130866
        8  | 29:04.67 |  3:49.08 |    130867    |   148049
        9  | 32:54.00 |  4:01.22 |    148050    |   166146
Track  1
     Filename E:\Music\Work in progress\- - Rip Music Folder\Michael McDonald\1985 - No Lookin' Back\01 No Lookin' Back.wav
     Pre-gap length  0:00:02.00
     Peak level 84.8 %
     Track quality 100.0 %
     Test CRC 9A400CAC
     Copy CRC 9A400CAC
     Accurately ripped (confidence 5)  [01558AF0]
     Copy OK
Track  2
     Filename E:\Music\Work in progress\- - Rip Music Folder\Michael McDonald\1985 - No Lookin' Back\02 Bad Times.wav
     Pre-gap length  0:00:01.40
     Peak level 97.9 %
     Track quality 100.0 %
     Test CRC 7FE9070F
     Copy CRC 7FE9070F
     Accurately ripped (confidence 5)  [7B8ED8CD]
     Copy OK
Track  3
     Filename E:\Music\Work in progress\- - Rip Music Folder\Michael McDonald\1985 - No Lookin' Back\03 (I'll Be Your) Angel.wav
     Pre-gap length  0:00:02.25
     Peak level 94.1 %
     Track quality 100.0 %
     Test CRC F295CAC5
     Copy CRC F295CAC5
     Accurately ripped (confidence 5)  [C5E65F95]
     Copy OK
Track  4
     Filename E:\Music\Work in progress\- - Rip Music Folder\Michael McDonald\1985 - No Lookin' Back\04 By Heart.wav
     Pre-gap length  0:00:04.70
     Peak level 84.6 %
     Track quality 100.0 %
     Test CRC B8998071
     Copy CRC B8998071
     Accurately ripped (confidence 5)  [40553631]
     Copy OK
Track  5
     Filename E:\Music\Work in progress\- - Rip Music Folder\Michael McDonald\1985 - No Lookin' Back\05 Any Foolish Thing.wav
     Pre-gap length  0:00:02.58
     Peak level 80.0 %
     Track quality 100.0 %
     Test CRC A4179A38
     Copy CRC A4179A38
     Accurately ripped (confidence 5)  [FE73E0FD]
     Copy OK
Track  6
     Filename E:\Music\Work in progress\- - Rip Music Folder\Michael McDonald\1985 - No Lookin' Back\06 Our Love.wav
     Pre-gap length  0:00:02.10
     Peak level 77.7 %
     Track quality 100.0 %
     Test CRC ACEE0E69
     Copy CRC ACEE0E69
     Accurately ripped (confidence 5)  [E63E4A31]
     Copy OK
Track  7
     Filename E:\Music\Work in progress\- - Rip Music Folder\Michael McDonald\1985 - No Lookin' Back\07 (I Hang) On Your Every Word.wav
     Pre-gap length  0:00:01.58
     Peak level 84.3 %
     Track quality 100.0 %
     Test CRC 6A6A882D
     Copy CRC 6A6A882D
     Accurately ripped (confidence 5)  [E1517DBF]
     Copy OK
Track  8
     Filename E:\Music\Work in progress\- - Rip Music Folder\Michael McDonald\1985 - No Lookin' Back\08 Lost In The Parade.wav
     Pre-gap length  0:00:02.15
     Peak level 99.1 %
     Track quality 99.9 %
     Test CRC F652DC03
     Copy CRC F652DC03
     Accurately ripped (confidence 5)  [898DE1A8]
     Copy OK
Track  9
     Filename E:\Music\Work in progress\- - Rip Music Folder\Michael McDonald\1985 - No Lookin' Back\09 Don't Let Me Down.wav
     Pre-gap length  0:00:03.03
     Peak level 83.3 %
     Track quality 100.0 %
     Test CRC D36A287F
     Copy CRC D36A287F
     Accurately ripped (confidence 5)  [FAF72C68]
     Copy OK
All tracks accurately ripped
No errors occurred
End of status report
Код:
REM GENRE Pop
REM DATE 1985
REM DISCID 6908A709
REM COMMENT "ExactAudioCopy v0.99pb5"
FILE "Michael McDonald\1985 - No Lookin' Back\01 No Lookin' Back.wav" WAVE
  TRACK 01 AUDIO
    INDEX 01 00:00:00
  TRACK 02 AUDIO
    INDEX 00 03:55:62
FILE "Michael McDonald\1985 - No Lookin' Back\02 Bad Times.wav" WAVE
    INDEX 01 00:00:00
  TRACK 03 AUDIO
    INDEX 00 04:18:70
FILE "Michael McDonald\1985 - No Lookin' Back\03 (I'll Be Your) Angel.wav" WAVE
    INDEX 01 00:00:00
  TRACK 04 AUDIO
    INDEX 00 03:48:73
FILE "Michael McDonald\1985 - No Lookin' Back\04 By Heart.wav" WAVE
    INDEX 01 00:00:00
  TRACK 05 AUDIO
    INDEX 00 04:32:72
FILE "Michael McDonald\1985 - No Lookin' Back\05 Any Foolish Thing.wav" WAVE
    INDEX 01 00:00:00
  TRACK 06 AUDIO
    INDEX 00 04:21:42
FILE "Michael McDonald\1985 - No Lookin' Back\06 Our Love.wav" WAVE
    INDEX 01 00:00:00
  TRACK 07 AUDIO
    INDEX 00 04:28:55
FILE "Michael McDonald\1985 - No Lookin' Back\07 (I Hang) On Your Every Word.wav" WAVE
    INDEX 01 00:00:00
  TRACK 08 AUDIO
    INDEX 00 03:20:17
FILE "Michael McDonald\1985 - No Lookin' Back\08 Lost In The Parade.wav" WAVE
    INDEX 01 00:00:00
  TRACK 09 AUDIO
    INDEX 00 03:46:05
FILE "Michael McDonald\1985 - No Lookin' Back\09 Don't Let Me Down.wav" WAVE
    INDEX 01 00:00:00
Код:
[url=https://fastpic.ru/view/47/2012/1114/007d9d05e00dd239efc195d44f4339df.jpg.html][img]http://i47.fastpic.ru/thumb/2012/1114/df/007d9d05e00dd239efc195d44f4339df.jpeg[/img][/url]
1982 - If That's What It Takes
1985 - No Lookin' Back
1990 - Take It To Heart
1993 - Blink Of An Eye
2000 - Blue Obsession
2003 - Motown
2004 - Motown Two
2008 - Soul Speak
Michael McDonald (born February 12, 1952) is a five-time Grammy Award winning American singer and songwriter. McDonald is known for a soulful baritone singing style and a multi-octave range. He began his career singing back-up vocals with Steely Dan. He became a member of The Doobie Brothers from 1976 to 1982, a period which resulted in several hit songs for the band.
Grammys
1979: Record of the Year for "What a Fool Believes" (The Doobie Brothers)
1979: Song of the Year for "What a Fool Believes" (with Kenny Loggins)
1979: Best Pop Vocal Performance by a Duo, Group or Chorus for "Minute by Minute" (The Doobie Brothers)
1979: Best Arrangement Accompanying Vocals for "What a Fool Believes" (The Doobie Brothers)
1984: Best R&B Performance by a Duo or Group with Vocal for "Yah Mo B There" (with James Ingram)
Michael McDonald
No Lookin' Back is the second full-length solo album from former Doobie Brothers singer/songwriter Michael McDonald, released in 1985. For the first time, he co-produced, as well as wrote or co-wrote all the songs.
No Lookin' Back was re-released in 1986 with different album artwork, along with the inclusion of the hit single "Sweet Freedom" from the soundtrack of the Gregory Hines/Billy Crystal movie Running Scared.
Drums, percussion: Staff Fieldhouse, George Perilli, Jeff Porcaro, Ted Templeman
Bass guitar: Nathan East, Willie Weeks
Keyboards, synthesizers, piano, organ: Randy Goodrum, Michael Hanna, Brian Mann, Michael McDonald, David Pack, Chris Pelonis, Scott Plunkett,
Chuck Sabatino
Emulator: Chris Pelonis
Guitars: Robben Ford, David Pack, Joe Walsh
Saxophone: Cornelius Bumpus
Правила, инструкции, FAQ!!!
Торрент  Добавлен [26 мар 2019, 20:52] Скачать торрент Магнет ссылка
Скачать торрент
[ Размер 37.27 КБ / Просмотров 5 ]

Статус
Проверен 
 
Размер  228.3 МБ
Приватный: Нет (DHT включён)
.torrent скачан  1
 


     Отправить личное сообщение
   
Страница 1 из 1
Показать сообщения за:  Поле сортировки  
Начать новую тему Ответить на тему


Сейчас этот форум просматривают: нет зарегистрированных пользователей и гости: 0


Вы не можете начинать темы
Вы не можете отвечать на сообщения
Вы не можете редактировать свои сообщения
Вы не можете удалять свои сообщения
Вы не можете добавлять вложения

Перейти:  
cron