Начать новую тему Ответить на тему
Статистика раздачи
Размер: 355.44 МБ | Добавлен: 26 мар 2019, 20:03 | Скачали: 0
Сидеров: 0  [0 байт/сек]    Личеров: 0  [0 байт/сек]
Пред. тема | След. тема 

Автор
Сообщение

СообщениеДобавлено: 26 мар 2019, 20:03 

Ответить с цитатой 

The Philosopher Kings / Famous, Rich and Beautiful...
Жанр: Soft-rock, Alternative, Funk, Soul, R&B
Страна-производитель диска: Canada
Год издания: 1997
Издатель (лейбл): Columbia Records / Sony Music Canada
Номер по каталогу: CK 80291
Страна: Canada
Аудиокодек: FLAC (*.flac)
Тип рипа: image+.cue
Битрейт аудио: lossless
Продолжительность: 0:57:06
Источник (релизер): собственный рип с оригинального CD
Наличие сканов в содержимом раздачи: нет
Треклист:
1. Hurts To Love You
2. I Am The Man
3. You Stepped On My Life
4. You Dont Love Me (Like You Used To)
5. Little Rosie
6. Oleo
7. The End
8. Super Sugar Supreme
9. Head First
10. The New Messiah
11. Youre Allowed
12. Cry
13. Wide Awake
14. Dinah
Код:
Exact Audio Copy V1.0 beta 3 from 29. August 2011
Отчёт EAC об извлечении, выполненном 19. апреля 2012, 22:06
The Philosopher Kings / Famous, Rich and Beautiful
Дисковод: Optiarc DVD RW AD-7260S   Adapter: 2  ID: 0
Режим чтения                 : Достоверность
Использование точного потока : Да
Отключение кэша аудио        : Да
Использование указателей C2  : Нет
Коррекция смещения при чтении                     : 48
Способность читать области Lead-in и Lead-out     : Нет
Заполнение пропущенных сэмплов тишиной            : Да
Удаление блоков с тишиной в начале и конце        : Нет
При вычислениях CRC использовались нулевые сэмплы : Да
Интерфейс                                         : Встроенный Win32-интерфейс для Win NT/2000
Выходной формат          : Пользовательский кодировщик
Выбранный битрейт        : 1024 kBit/s
Качество                 : Высокий
Добавление ID3-тега      : Нет
Утилита сжатия           : C:\Program Files (x86)\Exact Audio Copy\FLAC\FLAC.EXE
Дополнительные параметры : -V -8 -T "Genre=%genre%" -T "Artist=%artist%" -T "Title=%title%" -T "Album=%albumtitle%" -T "Date=%year%" -T "Tracknumber=%tracknr%" -T "Comment=%comment%" %source%
TOC извлечённого CD
     Трек |   Старт  | Длительность | Начальный сектор | Конечный сектор
    ---------------------------------------------------------------------
       1  |  0:00.00 |    5:21.10   |           0      |      24084
       2  |  5:21.10 |    4:23.57   |       24085      |      43866
       3  |  9:44.67 |    4:20.72   |       43867      |      63438
       4  | 14:05.64 |    4:23.13   |       63439      |      83176
       5  | 18:29.02 |    4:33.45   |       83177      |     103696
       6  | 23:02.47 |    6:06.18   |      103697      |     131164
       7  | 29:08.65 |    2:49.62   |      131165      |     143901
       8  | 31:58.52 |    3:32.65   |      143902      |     159866
       9  | 35:31.42 |    3:38.00   |      159867      |     176216
      10  | 39:09.42 |    4:06.73   |      176217      |     194739
      11  | 43:16.40 |    3:43.20   |      194740      |     211484
      12  | 46:59.60 |    3:04.27   |      211485      |     225311
      13  | 50:04.12 |    4:55.65   |      225312      |     247501
      14  | 55:00.02 |    2:06.48   |      247502      |     256999
Характеристики диапазона извлечения и сообщения об ошибках
Выбранный диапазон
     Имя файла C:\Раздачи\PHKings\The Philosopher Kings - Famous, Rich and Beautiful.wav
     Пиковый уровень 100.0 %
     Скорость извлечения 3.9 X
     Качество диапазона 100.0 %
     CRC теста DD1D9EAE
     CRC копии DD1D9EAE
     Копирование... OK
Ошибок не произошло
AccurateRip: сводка
Трек  1  : извлечено точно (доверие 32)  [CAF87350]  (AR v1)
Трек  2  : извлечено точно (доверие 32)  [60567981]  (AR v1)
Трек  3  : извлечено точно (доверие 32)  [B8231BFF]  (AR v1)
Трек  4  : извлечено точно (доверие 32)  [7DD7D144]  (AR v1)
Трек  5  : извлечено точно (доверие 32)  [27CB0ACB]  (AR v1)
Трек  6  : извлечено точно (доверие 32)  [C71FB32C]  (AR v1)
Трек  7  : извлечено точно (доверие 32)  [087FE1FC]  (AR v1)
Трек  8  : извлечено точно (доверие 32)  [57B14896]  (AR v1)
Трек  9  : извлечено точно (доверие 32)  [DC95E77E]  (AR v1)
Трек 10  : извлечено точно (доверие 32)  [F9DD1DA2]  (AR v1)
Трек 11  : извлечено точно (доверие 32)  [7894F001]  (AR v1)
Трек 12  : извлечено точно (доверие 31)  [8B1349CF]  (AR v1)
Трек 13  : извлечено точно (доверие 32)  [89AE7A05]  (AR v1)
Трек 14  : извлечено точно (доверие 32)  [6BC5A3EF]  (AR v1)
Все треки извлечены точно
Конец отчёта
---- CUETools DB Plugin V2.1.3
[CTDB TOCID: 2lH8HFOFi5NdyumoFtToHNoLfMM-] found, Submit result: 2lH8HFOFi5NdyumoFtToHNoLfMM- has been confirmed
[d48c80ea] (29/29) Accurately ripped
==== Контрольная сумма отчёта 889E2CEC756EC65E501F9771DF31AC27CF50A4BE377A41B66AFBCF8465D1CABF ====
Код:
-----------------------
DON'T MODIFY THIS FILE
-----------------------
PERFORMER: auCDtect Task Manager, ver. 1.0.0 Stable build 1.0.0.0
Copyright (c) 2008, 2009 y-soft. All rights reserved
[url=http://y-soft.110mb.com]http://y-soft.110mb.com[/url]
ANALYZER: auCDtect: CD records authenticity detector, version 0.8.2
Copyright (c) 2004 Oleg Berngardt. All rights reserved.
Copyright (c) 2004 Alexander Djourik. All rights reserved.
FILE: The Philosopher Kings - Famous, Rich and Beautiful.flac
  Size: 372689574 Hash: D0380AF8C75C8C3D8CBE97100272F3FD Accuracy: -m0
  Conclusion: CDDA 100%
  Signature: EA64FC85F815858872888FCE02447BC37EDDC837
Правила, инструкции, FAQ!!!
Торрент  Добавлен [26 мар 2019, 20:03] Скачать торрент Магнет ссылка
Скачать торрент
[ Размер 14.63 КБ / Просмотров 3 ]

Статус
Проверен 
 
Размер  355.44 МБ
Приватный: Нет (DHT включён)
.torrent скачан  0
 


     Отправить личное сообщение
   
Страница 1 из 1
Показать сообщения за:  Поле сортировки  
Начать новую тему Ответить на тему


Сейчас этот форум просматривают: нет зарегистрированных пользователей и гости: 0


Вы не можете начинать темы
Вы не можете отвечать на сообщения
Вы не можете редактировать свои сообщения
Вы не можете удалять свои сообщения
Вы не можете добавлять вложения

Перейти:  
cron