Начать новую тему Ответить на тему
Статистика раздачи
Размер: 287.76 МБ | Добавлен: 26 мар 2019, 19:41 | Скачали: 0
Сидеров: 1  [0 байт/сек]    Личеров: 0  [0 байт/сек]
Пред. тема | След. тема 

Автор
Сообщение

СообщениеДобавлено: 26 мар 2019, 19:41 

Ответить с цитатой 

ShyBoy - Water on Mars

Год: 2013||Страна: USA||Жанр: Soft Rock, Alternative, Electronic||Носитель: CD||Номер по каталогу: 632623100425
Тип рипа: tracks+.cue||Издатель (лейбл): ASCAP||Сканы: Да||Продолжительность: 00:49:34
Тексты: нет||Кодек: FLAC (*.flac)||Битрейт: lossless||Источник (релизер): собственный рип

Треклист:[size=112]
01 Bird In Flight (04:41)
02 Everytime I See The Moon (04:22)
03 Carousel (03:20)
04 Locked Away (04:27)
05 Drops (04:53)
06 Tiny Song (03:30)
07 When I Close My Eyes (04:54)
08 Tractor Beam (03:37)
09 High Wire (04:19)
10 Marion Crane (03:43)
11 Imperfect World (04:02)
12 Water On Mars (03:53)
Код:
Exact Audio Copy V1.0 beta 4 from 7. December 2014
EAC extraction logfile from 2. April 2015, 10:13
Shyboy / Water On Mars
Used drive  : HL-DT-STDVDRAM GH22NS50   Adapter: 1  ID: 0
Read mode               : Secure
Utilize accurate stream : Yes
Defeat audio cache      : Yes
Make use of C2 pointers : No
Read offset correction                      : 667
Overread into Lead-In and Lead-Out          : No
Fill up missing offset samples with silence : Yes
Delete leading and trailing silent blocks   : No
Null samples used in CRC calculations       : Yes
Used interface                              : Native Win32 interface for Win NT & 2000
Gap handling                                : Appended to previous track
Used output format              : User Defined Encoder
Selected bitrate                : 128 kBit/s
Quality                         : High
Add ID3 tag                     : Yes
Command line compressor         : C:\Program Files (x86)\Exact Audio Copy\Flac\flac.exe
Additional command line options : -V -8 -T "Date=%year%" -T "Genre=%genre%" %source%
TOC of the extracted CD
     Track |   Start  |  Length  | Start sector | End sector
    ---------------------------------------------------------
        1  |  0:00.00 |  4:40.05 |         0    |    21004
        2  |  4:40.05 |  4:21.02 |     21005    |    40581
        3  |  9:01.07 |  3:19.66 |     40582    |    55572
        4  | 12:20.73 |  4:26.52 |     55573    |    75574
        5  | 16:47.50 |  4:52.54 |     75575    |    97528
        6  | 21:40.29 |  3:29.03 |     97529    |   113206
        7  | 25:09.32 |  4:53.40 |    113207    |   135221
        8  | 30:02.72 |  3:36.18 |    135222    |   151439
        9  | 33:39.15 |  4:18.37 |    151440    |   170826
       10  | 37:57.52 |  3:42.28 |    170827    |   187504
       11  | 41:40.05 |  4:01.08 |    187505    |   205587
       12  | 45:41.13 |  3:52.03 |    205588    |   222990
Track  1
     Filename D:\!рипы\01 Bird In Flight.wav
     Pre-gap length  0:00:02.00
     Peak level 97.7 %
     Extraction speed 1.2 X
     Track quality 100.0 %
     Test CRC AEE69416
     Copy CRC AEE69416
     Copy OK
Track  2
     Filename D:\!рипы\02 Everytime I See Th.wav
     Peak level 95.8 %
     Extraction speed 1.4 X
     Track quality 100.0 %
     Test CRC 244DBA4B
     Copy CRC 244DBA4B
     Copy OK
Track  3
     Filename D:\!рипы\03 Carousel.wav
     Peak level 96.5 %
     Extraction speed 1.4 X
     Track quality 100.0 %
     Test CRC 0F4D63CC
     Copy CRC 0F4D63CC
     Copy OK
Track  4
     Filename D:\!рипы\04 Locked Away.wav
     Peak level 98.8 %
     Extraction speed 1.6 X
     Track quality 100.0 %
     Test CRC B4091CBB
     Copy CRC B4091CBB
     Copy OK
Track  5
     Filename D:\!рипы\05 Drops.wav
     Peak level 92.1 %
     Extraction speed 1.7 X
     Track quality 100.0 %
     Test CRC A38F9C93
     Copy CRC A38F9C93
     Copy OK
Track  6
     Filename D:\!рипы\06 Tiny Song.wav
     Peak level 80.1 %
     Extraction speed 1.7 X
     Track quality 100.0 %
     Test CRC 9C474D87
     Copy CRC 9C474D87
     Copy OK
Track  7
     Filename D:\!рипы\07 When I Close My Eyes.wav
     Peak level 97.5 %
     Extraction speed 2.0 X
     Track quality 100.0 %
     Test CRC 5E8C60A1
     Copy CRC 5E8C60A1
     Copy OK
Track  8
     Filename D:\!рипы\08 Tractor Beam.wav
     Peak level 94.9 %
     Extraction speed 2.0 X
     Track quality 100.0 %
     Test CRC 6CCADADA
     Copy CRC 6CCADADA
     Copy OK
Track  9
     Filename D:\!рипы\09 High Wire.wav
     Peak level 96.4 %
     Extraction speed 2.1 X
     Track quality 100.0 %
     Test CRC E3550B62
     Copy CRC E3550B62
     Copy OK
Track 10
     Filename D:\!рипы\10 Marion Crane.wav
     Peak level 95.0 %
     Extraction speed 2.1 X
     Track quality 100.0 %
     Test CRC DE3AD6B5
     Copy CRC DE3AD6B5
     Copy OK
Track 11
     Filename D:\!рипы\11 Imperfect World.wav
     Peak level 95.4 %
     Extraction speed 2.3 X
     Track quality 100.0 %
     Test CRC A3E48D4F
     Copy CRC A3E48D4F
     Copy OK
Track 12
     Filename D:\!рипы\12 Water On Mars.wav
     Peak level 94.5 %
     Extraction speed 2.4 X
     Track quality 100.0 %
     Test CRC 556EED3E
     Copy CRC 556EED3E
     Copy OK
No errors occurred
End of status report
==== Log checksum E8264DCBDCBC0D4C28FBD16C8C48CFC50EA592FEE1529FB73E4397905E883D1C ====
Код:
REM DISCID 7E0B9D0C
REM COMMENT "ExactAudioCopy v1.0b4"
PERFORMER "Shyboy"
TITLE "Water On Mars"
FILE "01 01 Bird In Flight.wav" WAVE
  TRACK 01 AUDIO
    TITLE "01 Bird In Flight"
    PERFORMER "Shyboy"
    INDEX 01 00:00:00
FILE "02 02 Everytime I See Th.wav" WAVE
  TRACK 02 AUDIO
    TITLE "02 Everytime I See Th"
    PERFORMER "Shyboy"
    INDEX 01 00:00:00
FILE "03 03 Carousel.wav" WAVE
  TRACK 03 AUDIO
    TITLE "03 Carousel"
    PERFORMER "Shyboy"
    INDEX 01 00:00:00
FILE "04 04 Locked Away.wav" WAVE
  TRACK 04 AUDIO
    TITLE "04 Locked Away"
    PERFORMER "Shyboy"
    INDEX 01 00:00:00
FILE "05 05 Drops.wav" WAVE
  TRACK 05 AUDIO
    TITLE "05 Drops"
    PERFORMER "Shyboy"
    INDEX 01 00:00:00
FILE "06 06 Tiny Song.wav" WAVE
  TRACK 06 AUDIO
    TITLE "06 Tiny Song"
    PERFORMER "Shyboy"
    INDEX 01 00:00:00
FILE "07 07 When I Close My Eyes.wav" WAVE
  TRACK 07 AUDIO
    TITLE "07 When I Close My Eyes"
    PERFORMER "Shyboy"
    INDEX 01 00:00:00
FILE "08 08 Tractor Beam.wav" WAVE
  TRACK 08 AUDIO
    TITLE "08 Tractor Beam"
    PERFORMER "Shyboy"
    INDEX 01 00:00:00
FILE "09 09 High Wire.wav" WAVE
  TRACK 09 AUDIO
    TITLE "09 High Wire"
    PERFORMER "Shyboy"
    INDEX 01 00:00:00
FILE "10 10 Marion Crane.wav" WAVE
  TRACK 10 AUDIO
    TITLE "10 Marion Crane"
    PERFORMER "Shyboy"
    INDEX 01 00:00:00
FILE "11 11 Imperfect World.wav" WAVE
  TRACK 11 AUDIO
    TITLE "11 Imperfect World"
    PERFORMER "Shyboy"
    INDEX 01 00:00:00
FILE "12 12 Water On Mars.wav" WAVE
  TRACK 12 AUDIO
    TITLE "12 Water On Mars"
    PERFORMER "Shyboy"
    INDEX 01 00:00:00
Правила, инструкции, FAQ!!!
Торрент  Добавлен [26 мар 2019, 19:41] Скачать торрент Магнет ссылка
Скачать торрент
[ Размер 12.57 КБ / Просмотров 10 ]

Статус
Проверен 
 
Размер  287.76 МБ
Приватный: Нет (DHT включён)
.torrent скачан  0
 


     Отправить личное сообщение
   
Страница 1 из 1
Показать сообщения за:  Поле сортировки  
Начать новую тему Ответить на тему


Сейчас этот форум просматривают: нет зарегистрированных пользователей и гости: 0


Вы не можете начинать темы
Вы не можете отвечать на сообщения
Вы не можете редактировать свои сообщения
Вы не можете удалять свои сообщения
Вы не можете добавлять вложения

Перейти:  
cron