Начать новую тему Ответить на тему
Статистика раздачи
Размер: 238.49 МБ | Добавлен: 26 мар 2019, 18:41 | Скачали: 0
Сидеров: 0  [0 байт/сек]    Личеров: 0  [0 байт/сек]
Пред. тема | След. тема 

Автор
Сообщение

СообщениеДобавлено: 26 мар 2019, 18:41 

Ответить с цитатой 

Carla Werner - Pure Things In Wild Places (2006)
Жанр: soft rock, adult pop, downtempo
Год издания: 2006
Издатель (лейбл): Unknown
Страна исполнителя: New Zealand
Аудиокодек: FLAC (*.flac)
Тип рипа: tracks+.cue
Битрейт аудио: lossless
Продолжительность: 00:46:42
Источник (релизер): What.CD
Наличие сканов в содержимом раздачи: нет
Треклист:
01. Driftwood
02. Into The Night
03. Ghost Road

04. June
05. For The Moon

06. Edge Of Joy
07. Dovetails
08. Love Come Down
09. Ships
10. Space
Код:
Exact Audio Copy V1.0 beta 3 from 29. August 2011
EAC extraction logfile from 19. February 2014, 9:29
Carla Werner / Pure Things In Wild Places
Used drive  : TSSTcorpCDDVDW SU-208DB   Adapter: 0  ID: 0
Read mode               : Secure
Utilize accurate stream : Yes
Defeat audio cache      : Yes
Make use of C2 pointers : No
Read offset correction                      : 48
Overread into Lead-In and Lead-Out          : No
Fill up missing offset samples with silence : Yes
Delete leading and trailing silent blocks   : No
Null samples used in CRC calculations       : Yes
Used interface                              : Native Win32 interface for Win NT & 2000
Gap handling                                : Appended to previous track
Used output format              : User Defined Encoder
Selected bitrate                : 1024 kBit/s
Quality                         : High
Add ID3 tag                     : No
Command line compressor         : C:\Program Files (x86)\Exact Audio Copy\Flac\flac.exe
Additional command line options : -8 -V -T "ARTIST=%artist%" -T "TITLE=%title%" -T "ALBUM=%albumtitle%" -T "DATE=%year%" -T "TRACKNUMBER=%tracknr%" -T "GENRE=%genre%" -T "PERFORMER=%albuminterpret%" -T "COMPOSER=%composer%" %haslyrics%--tag-from-file=LYRICS="%lyricsfile%"%haslyrics% -T "ALBUMARTIST=%albumartist%" -T "DISCNUMBER=%cdnumber%" -T "TOTALDISCS=%totalcds%" -T "TOTALTRACKS=%numtracks%" -T "COMMENT=%comment%" %source% -o %dest%
TOC of the extracted CD
     Track |   Start  |  Length  | Start sector | End sector
    ---------------------------------------------------------
        1  |  0:00.00 |  4:23.12 |         0    |    19736
        2  |  4:23.12 |  3:57.42 |     19737    |    37553
        3  |  8:20.54 |  7:18.54 |     37554    |    70457
        4  | 15:39.33 |  4:20.68 |     70458    |    90025
        5  | 20:00.26 |  4:57.54 |     90026    |   112354
        6  | 24:58.05 |  3:54.51 |    112355    |   129955
        7  | 28:52.56 |  4:11.50 |    129956    |   148830
        8  | 33:04.31 |  3:59.19 |    148831    |   166774
        9  | 37:03.50 |  7:50.39 |    166775    |   202063
       10  | 44:54.14 |  1:48.23 |    202064    |   210186
Track  1
     Filename C:\Users\Scott Walker\EAC Rips\Carla Werner - Pure Things In Wild Places\01 - Driftwood.wav
     Pre-gap length  0:00:02.00
     Peak level 93.9 %
     Extraction speed 2.9 X
     Track quality 100.0 %
     Test CRC 8C0048B1
     Copy CRC 8C0048B1
     Accurately ripped (confidence 2)  [7F741CEE]  (AR v2)
     Copy OK
Track  2
     Filename C:\Users\Scott Walker\EAC Rips\Carla Werner - Pure Things In Wild Places\02 - Into The Night.wav
     Peak level 95.8 %
     Extraction speed 3.2 X
     Track quality 100.0 %
     Test CRC D7EF5743
     Copy CRC D7EF5743
     Accurately ripped (confidence 2)  [1FB948A0]  (AR v2)
     Copy OK
Track  3
     Filename C:\Users\Scott Walker\EAC Rips\Carla Werner - Pure Things In Wild Places\03 - Ghost Road.wav
     Peak level 96.9 %
     Extraction speed 3.8 X
     Track quality 100.0 %
     Test CRC C1E658EF
     Copy CRC C1E658EF
     Accurately ripped (confidence 2)  [F85E05BA]  (AR v2)
     Copy OK
Track  4
     Filename C:\Users\Scott Walker\EAC Rips\Carla Werner - Pure Things In Wild Places\04 - June.wav
     Peak level 93.2 %
     Extraction speed 3.3 X
     Track quality 99.9 %
     Test CRC 37EB9505
     Copy CRC 37EB9505
     Accurately ripped (confidence 2)  [873AC9E0]  (AR v2)
     Copy OK
Track  5
     Filename C:\Users\Scott Walker\EAC Rips\Carla Werner - Pure Things In Wild Places\05 - For The Moon.wav
     Peak level 93.2 %
     Extraction speed 4.3 X
     Track quality 100.0 %
     Test CRC 82427775
     Copy CRC 82427775
     Accurately ripped (confidence 2)  [77A81255]  (AR v2)
     Copy OK
Track  6
     Filename C:\Users\Scott Walker\EAC Rips\Carla Werner - Pure Things In Wild Places\06 - Edge Of Joy.wav
     Peak level 99.8 %
     Extraction speed 3.6 X
     Track quality 99.9 %
     Test CRC ED7BDCB5
     Copy CRC ED7BDCB5
     Accurately ripped (confidence 2)  [64187470]  (AR v2)
     Copy OK
Track  7
     Filename C:\Users\Scott Walker\EAC Rips\Carla Werner - Pure Things In Wild Places\07 - Dovetails.wav
     Peak level 95.3 %
     Extraction speed 3.9 X
     Track quality 99.9 %
     Test CRC 791F8A46
     Copy CRC 791F8A46
     Accurately ripped (confidence 2)  [7224C173]  (AR v2)
     Copy OK
Track  8
     Filename C:\Users\Scott Walker\EAC Rips\Carla Werner - Pure Things In Wild Places\08 - Love Come Down.wav
     Pre-gap length  0:00:01.74
     Peak level 93.2 %
     Extraction speed 4.8 X
     Track quality 100.0 %
     Test CRC 0F68716C
     Copy CRC 0F68716C
     Accurately ripped (confidence 2)  [277E9491]  (AR v2)
     Copy OK
Track  9
     Filename C:\Users\Scott Walker\EAC Rips\Carla Werner - Pure Things In Wild Places\09 - Ships.wav
     Pre-gap length  0:00:02.49
     Peak level 89.4 %
     Extraction speed 5.5 X
     Track quality 100.0 %
     Test CRC EF5FBB39
     Copy CRC EF5FBB39
     Accurately ripped (confidence 2)  [E9CB6E00]  (AR v2)
     Copy OK
Track 10
     Filename C:\Users\Scott Walker\EAC Rips\Carla Werner - Pure Things In Wild Places\10 - Space.wav
     Pre-gap length  0:01:09.21
     Peak level 57.7 %
     Extraction speed 4.6 X
     Track quality 100.0 %
     Test CRC 37B562B4
     Copy CRC 37B562B4
     Accurately ripped (confidence 2)  [4CF3426F]  (AR v2)
     Copy OK
All tracks accurately ripped
No errors occurred
End of status report
==== Log checksum 60EF350F95A40B1B6AF5C95B5F73BBAD876B4B276A3FBA078B116F55746E855A ====
Код:
REM GENRE Folk
REM DATE 2006
REM DISCID 780AF20A
REM COMMENT "ExactAudioCopy v1.0b3"
PERFORMER "Carla Werner"
TITLE "Pure Things In Wild Places"
FILE "01 - Driftwood.wav" WAVE
  TRACK 01 AUDIO
    TITLE "Driftwood"
    PERFORMER "Carla Werner"
    INDEX 01 00:00:00
FILE "02 - Into The Night.wav" WAVE
  TRACK 02 AUDIO
    TITLE "Into The Night"
    PERFORMER "Carla Werner"
    INDEX 01 00:00:00
FILE "03 - Ghost Road.wav" WAVE
  TRACK 03 AUDIO
    TITLE "Ghost Road"
    PERFORMER "Carla Werner"
    INDEX 01 00:00:00
FILE "04 - June.wav" WAVE
  TRACK 04 AUDIO
    TITLE "June"
    PERFORMER "Carla Werner"
    INDEX 01 00:00:00
FILE "05 - For The Moon.wav" WAVE
  TRACK 05 AUDIO
    TITLE "For The Moon"
    PERFORMER "Carla Werner"
    INDEX 01 00:00:00
FILE "06 - Edge Of Joy.wav" WAVE
  TRACK 06 AUDIO
    TITLE "Edge Of Joy"
    PERFORMER "Carla Werner"
    INDEX 01 00:00:00
FILE "07 - Dovetails.wav" WAVE
  TRACK 07 AUDIO
    TITLE "Dovetails"
    PERFORMER "Carla Werner"
    INDEX 01 00:00:00
  TRACK 08 AUDIO
    TITLE "Love Come Down"
    PERFORMER "Carla Werner"
    INDEX 00 04:09:69
FILE "08 - Love Come Down.wav" WAVE
    INDEX 01 00:00:00
  TRACK 09 AUDIO
    TITLE "Ships"
    PERFORMER "Carla Werner"
    INDEX 00 03:56:57
FILE "09 - Ships.wav" WAVE
    INDEX 01 00:00:00
  TRACK 10 AUDIO
    TITLE "Space"
    PERFORMER "Carla Werner"
    INDEX 00 06:41:23
FILE "10 - Space.wav" WAVE
    INDEX 01 00:00:00
Код:
-----------------------
DON'T MODIFY THIS FILE
-----------------------
PERFORMER: auCDtect Task Manager, ver. 1.5.1RC6 build 1.5.1.7
Copyright (c) 2008-2010 y-soft. All rights reserved
[url=http://y-soft.org]http://y-soft.org[/url]
ANALYZER: auCDtect: CD records authenticity detector, version 0.8.2
Copyright (c) 2004 Oleg Berngardt. All rights reserved.
Copyright (c) 2004 Alexander Djourik. All rights reserved.
FILE: 10 - Space.flac
  Size: 7320580 Hash: 23B891C51E5CA9625B0A4D980B56AD3B Accuracy: -m0
  Conclusion: CDDA 100%
  Signature: FBDD8FEBC1A9850B6EC16014A84792E9E4136873
FILE: 09 - Ships.flac
  Size: 31011770 Hash: 1DE5931B5D38383C881A28A3ED4CE01D Accuracy: -m0
  Conclusion: CDDA 100%
  Signature: 19A5C1ABB74FD0C2069F96559C3FF1756A916EEE
FILE: 08 - Love Come Down.flac
  Size: 17546729 Hash: 9C58D1EFB573C8C8A956F2C7DC731778 Accuracy: -m0
  Conclusion: CDDA 100%
  Signature: 43AD9FC7D8C72266977BE7C192F0144E5585B66F
FILE: 07 - Dovetails.flac
  Size: 28394377 Hash: 214103052A98AF31EAC6407FE9214902 Accuracy: -m0
  Conclusion: CDDA 100%
  Signature: 9D9660BDCF9390170C585897BA7A5FC50A5F1B1F
FILE: 06 - Edge Of Joy.flac
  Size: 24092897 Hash: 39C3F944CC7A5F7244B983C67EEE1E8C Accuracy: -m0
  Conclusion: CDDA 100%
  Signature: 8CE814263D96B9FFA5AEB9F09CD81103B54F381E
FILE: 05 - For The Moon.flac
  Size: 28222561 Hash: 600FE885B03F93CC5281172A0DFB57C9 Accuracy: -m0
  Conclusion: CDDA 99%
  Signature: 9429541B20508915359D62B2DFC5CC93AADF479D
FILE: 04 - June.flac
  Size: 23259728 Hash: BAF9B4563B91FAA02633C6D606C37310 Accuracy: -m0
  Conclusion: CDDA 99%
  Signature: 601D3D2431D554B201F8F96FED0AA6F58D65F4D3
FILE: 03 - Ghost Road.flac
  Size: 39625901 Hash: B8A0521DA282A0A7810C1CE75212BC38 Accuracy: -m0
  Conclusion: CDDA 100%
  Signature: C7AE72850ED46110AA0F87D8298F02D0D711A9A4
FILE: 02 - Into The Night.flac
  Size: 26911775 Hash: 376CC1EBA51029481A5764DC990E0150 Accuracy: -m0
  Conclusion: CDDA 100%
  Signature: 691D7F9EC14384CFBAF64FB7189CDBC49CDE8280
FILE: 01 - Driftwood.flac
  Size: 23679694 Hash: 3EA400D25BA908164A1FD70FC6103AC9 Accuracy: -m0
  Conclusion: CDDA 100%
  Signature: 423B89D7D90F37D324AC6EB348C04CDF9A706B2F
Доп. информация: Carla Werner - очень интересная певица из New Zealand.*Раздача может быть поглощена рипом с фирменного диска с полным набором сканов.
Правила, инструкции, FAQ!!!
Торрент  Добавлен [26 мар 2019, 18:41] Скачать торрент Магнет ссылка
Скачать торрент
[ Размер 19.78 КБ / Просмотров 2 ]

Статус
Проверен 
 
Размер  238.49 МБ
Приватный: Нет (DHT включён)
.torrent скачан  0
 


     Отправить личное сообщение
   
Страница 1 из 1
Показать сообщения за:  Поле сортировки  
Начать новую тему Ответить на тему


Сейчас этот форум просматривают: нет зарегистрированных пользователей и гости: 0


Вы не можете начинать темы
Вы не можете отвечать на сообщения
Вы не можете редактировать свои сообщения
Вы не можете удалять свои сообщения
Вы не можете добавлять вложения

Перейти:  
cron