Начать новую тему Ответить на тему
Статистика раздачи
Размер: 331.58 МБ | Добавлен: 26 мар 2019, 20:52 | Скачали: 0
Сидеров: 1  [0 байт/сек]    Личеров: 0  [0 байт/сек]
Пред. тема | След. тема 

Автор
Сообщение

СообщениеДобавлено: 26 мар 2019, 20:52 

Ответить с цитатой 

Peter Cetera - Another Perfect World
Жанр: Soft-Rock, Adult Contemporary
Год выпуска диска: 2001
Страна: United States
Производитель диска: DDE
Аудио кодек: FLAC
Тип рипа: image+.cue
Битрейт аудио: lossless
Продолжительность: 46:31
Трэклист:
01 Perfect World (4:59)
02 Rain Love (4:04)
03 Just Like Love (3:38)
04 Feels Like Rain (4:43)
05 I'm Coming Home (4:19)
06 It's Only Love (3:29)
07 Rule the World (5:08)
08 Have a Little Faith (5:45)
09 Only Heaven Knows (5:38)
10 Whatever Gets You Through (4:44)
Доп. информация:
http://www.petercetera.com/
http://en.wikipedia.org/wiki/Peter_Cetera
Код:
Exact Audio Copy V0.99 prebeta 5 from 4. May 2009
Отчёт EAC об извлечении, выполненном 11. января 2010, 6:50
Peter Cetera / Another Perfect World
Дисковод: TEAC    CD-W552E   Adapter: 0  ID: 0
Режим чтения                 : Достоверность
Использование точного потока : Да
Отключение кэша аудио        : Да
Использование указателей C2  : Нет
Коррекция смещения при чтении                     : 6
Способность читать области Lead-in и Lead-out     : Нет
Заполнение пропущенных сэмплов тишиной            : Да
Удаление блоков с тишиной в начале и конце        : Нет
При вычислениях CRC использовались нулевые сэмплы : Да
Интерфейс                                         : Установленный внешний ASPI-интерфейс
Выходной формат          : Пользовательский кодировщик
Выбранный битрейт        : 768 kBit/s
Качество                 : Высокий
Добавление ID3-тэга      : Нет
Утилита сжатия           : C:\Program Files\Exact Audio Copy\FLAC\FLAC.EXE
Дополнительные параметры : -8 -V -T "ARTIST=%a" -T "TITLE=%t" -T "ALBUM=%g" -T "DATE=%y" -T "TRACKNUMBER=%n" -T "GENRE=%m" -T "COMMENT=EAC FLAC -8" %s
TOC извлечённого CD
     Трек |   Старт  | Длительность | Начальный сектор | Конечный сектор
    ---------------------------------------------------------------------
       1  |  0:00.00 |    5:00.07   |           0      |      22506
       2  |  5:00.07 |    4:03.50   |       22507      |      40781
       3  |  9:03.57 |    3:38.40   |       40782      |      57171
       4  | 12:42.22 |    4:43.48   |       57172      |      78444
       5  | 17:25.70 |    4:19.67   |       78445      |      97936
       6  | 21:45.62 |    3:28.38   |       97937      |     113574
       7  | 25:14.25 |    5:08.17   |      113575      |     136691
       8  | 30:22.42 |    5:45.45   |      136692      |     162611
       9  | 36:08.12 |    5:38.55   |      162612      |     188016
      10  | 41:46.67 |    4:44.68   |      188017      |     209384
Характеристики диапазона извлечения и сообщения об ошибках
Выбранный диапазон
     Имя файла D:\Lossless\Peter Cetera - Another Perfect World (2001)\Peter Cetera - Another Perfect World.wav
     Пиковый уровень 99.9 %
     Качество диапазона 100.0 %
     CRC теста 47B1589F
     CRC копии 47B1589F
     Копирование... OK
Ошибок не произошло
AccurateRip: сводка
Трек  1  точное извлечение (доверие 32)  [BC2C9BF7]
Трек  2  точное извлечение (доверие 32)  [BAB0264D]
Трек  3  точное извлечение (доверие 32)  [13B38749]
Трек  4  точное извлечение (доверие 32)  [7D209BC8]
Трек  5  точное извлечение (доверие 32)  [EA7BB85E]
Трек  6  точное извлечение (доверие 31)  [5255F930]
Трек  7  точное извлечение (доверие 32)  [EBCE5C66]
Трек  8  точное извлечение (доверие 32)  [573C467B]
Трек  9  точное извлечение (доверие 32)  [EE0B95CD]
Трек 10  точное извлечение (доверие 31)  [0B69348C]
Все треки извлечены точно
Конец отчёта
Код:
[Verification date: 11.01.2010 6:52:19]
[Disc ID: 0010e4b4-0087fa0a-720ae70a]
HDCD: peak extend: none, transient filter: none, gain: none
Track [ CRC    ] Status
 01 [bc2c9bf7] (32/39) Accurately ripped as in pressing(s) #1
 02 [bab0264d] (32/39) Accurately ripped as in pressing(s) #1
 03 [13b38749] (32/40) Accurately ripped as in pressing(s) #1
 04 [7d209bc8] (32/40) Accurately ripped as in pressing(s) #1
 05 [ea7bb85e] (32/40) Accurately ripped as in pressing(s) #1
 06 [5255f930] (31/38) Accurately ripped as in pressing(s) #1
 07 [ebce5c66] (32/40) Accurately ripped as in pressing(s) #1
 08 [573c467b] (32/39) Accurately ripped as in pressing(s) #1
 09 [ee0b95cd] (32/39) Accurately ripped as in pressing(s) #1
 10 [0b69348c] (31/39) Accurately ripped as in pressing(s) #1
Offsetted by -667:
 01 [da7437a8] (05/39) Accurately ripped as in pressing(s) #2
 02 [18fd069e] (05/39) Accurately ripped as in pressing(s) #2
 03 [8df1fe85] (06/40) Accurately ripped as in pressing(s) #2
 04 [560d9ab5] (06/40) Accurately ripped as in pressing(s) #2
 05 [aea0aa67] (06/40) Accurately ripped as in pressing(s) #2
 06 [d290a45c] (05/38) Accurately ripped as in pressing(s) #2
 07 [b07d17d5] (06/40) Accurately ripped as in pressing(s) #2
 08 [fec72d21] (05/39) Accurately ripped as in pressing(s) #2
 09 [86d86e25] (05/39) Accurately ripped as in pressing(s) #2
 10 [a6812620] (06/39) Accurately ripped as in pressing(s) #2
Offsetted by -523:
 01 [e9ed527f] (02/39) Accurately ripped as in pressing(s) #3
 02 [6e0b1ca7] (02/39) Accurately ripped as in pressing(s) #3
 03 [6f8cd1de] (02/40) Accurately ripped as in pressing(s) #3
 04 [954e5100] (02/40) Accurately ripped as in pressing(s) #3
 05 [e4d6b47e] (02/40) Accurately ripped as in pressing(s) #3
 06 [199e19b5] (02/38) Accurately ripped as in pressing(s) #3
 07 [36ddf5a1] (02/40) Accurately ripped as in pressing(s) #3
 08 [df057307] (02/39) Accurately ripped as in pressing(s) #3
 09 [51f978ff] (02/39) Accurately ripped as in pressing(s) #3
 10 [949a6406] (02/39) Accurately ripped as in pressing(s) #3
Track [ CRC32  ] [W/O NULL] [  LOG   ]
 -- [47B1589F] [ECEA66AA]   CRC32
 01 [13604EB1] [0FE61F3B]
 02 [2C410336] [ED911000]
 03 [1A79CFF5] [3F692300]
 04 [6B79C2FF] [F62484F2]
 05 [5AB52247] [9D814B9E]
 06 [016D1EDA] [86C4E370]
 07 [47912628] [D581A4A6]
 08 [61FDFB75] [F41B8240]
 09 [A8D6E995] [19A1F2D7]
 10 [D06A4C2A] [BA1B5740]
Правила, инструкции, FAQ!!!
Торрент  Добавлен [26 мар 2019, 20:52] Скачать торрент Магнет ссылка
Скачать торрент
[ Размер 14.36 КБ / Просмотров 12 ]

Статус
Проверен 
 
Размер  331.58 МБ
Приватный: Нет (DHT включён)
.torrent скачан  0
 


     Отправить личное сообщение
   
Страница 1 из 1
Показать сообщения за:  Поле сортировки  
Начать новую тему Ответить на тему


Сейчас этот форум просматривают: нет зарегистрированных пользователей и гости: 0


Вы не можете начинать темы
Вы не можете отвечать на сообщения
Вы не можете редактировать свои сообщения
Вы не можете удалять свои сообщения
Вы не можете добавлять вложения

Перейти:  
cron