Начать новую тему Ответить на тему
Статистика раздачи
Размер: 303.26 МБ | Добавлен: 26 мар 2019, 20:26 | Скачали: 0
Сидеров: 0  [0 байт/сек]    Личеров: 0  [0 байт/сек]
Пред. тема | След. тема 

Автор
Сообщение

СообщениеДобавлено: 26 мар 2019, 20:26 

Ответить с цитатой 

The Cardigans - Life [Sweden Edition]
Лэйбл (Номер по каталогу): Stockholm Records (523 556-2)
Формат: CD, Album
Страна-производитель: Sweden
Год выпуска: 1995
Жанр: Rock
Стиль: Soft-Pock, Pop
Аудио кодек: FLAC
Тип рипа: tracks+.cue
Продолжительность: 47:10
Обложки: 600x600
Трэклист:
1. Carnival (3:37)
2. Gordon's Gardenparty (3:22)
3. Daddy's Car (3:35)
4. Sick & Tired (3:24)
5. Tomorrow (3:05)
6. Rise & Shine (3:30)
7. Beautiful One (3:28)
8. Travelling With Charley (4:09)
9. Fine (3:11)
10. Celia Inside (4:42)
11. Hey! Get Out Of My Way (3:32)
12. After All... (2:57)
13. Sabbath Bloody Sabbath (4:32)
The Cardigans are: Bengt Lagerberg, Lars-Olof Johansson, Magnus Sveningsson, Nina Persson, Peter Svensson
Доп. информация:
Шведский саунд и очаровательный вокал Нины Перссон (Nina Persson) - легкость и свежесть этой музыки вплетается в сознание, безапелляционно оставляя Вас поклонником коллектива. Обращаю внимание, здесь представлено Шведское издание альбома, несколько отличающееся треклистом от US Edition: The Cardigans - Life [US Edition]
Код:
Exact Audio Copy V0.99 prebeta 4 from 23. January 2008
EAC extraction logfile from 16. September 2009, 21:39
The Cardigans / Life
Used drive  : PIONEER DVD-RW  DVR-217F   Adapter: 3  ID: 0
Read mode               : Secure
Utilize accurate stream : Yes
Defeat audio cache      : Yes
Make use of C2 pointers : No
Read offset correction                      : 96
Overread into Lead-In and Lead-Out          : No
Fill up missing offset samples with silence : Yes
Delete leading and trailing silent blocks   : No
Null samples used in CRC calculations       : Yes
Used interface                              : Native Win32 interface for Win NT & 2000
Gap handling                                : Appended to previous track
Used output format              : User Defined Encoder
Selected bitrate                : 128 kBit/s
Quality                         : High
Add ID3 tag                     : No
Command line compressor         : C:\Program Files\Exact Audio Copy\Flac\flac.exe
Additional command line options : -8 -V -T "ARTIST=%a" -T "TITLE=%t" -T "ALBUM=%g" -T "DATE=%y" -T "TRACKNUMBER=%n" -T "GENRE=%m" -T "COMMENT=EAC FLAC -8" %s
TOC of the extracted CD
     Track |   Start  |  Length  | Start sector | End sector
    ---------------------------------------------------------
        1  |  0:00.00 |  3:37.15 |         0    |    16289
        2  |  3:37.15 |  3:21.67 |     16290    |    31431
        3  |  6:59.07 |  3:36.53 |     31432    |    47684
        4  | 10:35.60 |  3:24.00 |     47685    |    62984
        5  | 13:59.60 |  3:04.10 |     62985    |    76794
        6  | 17:03.70 |  3:31.60 |     76795    |    92679
        7  | 20:35.55 |  3:28.02 |     92680    |   108281
        8  | 24:03.57 |  4:11.10 |    108282    |   127116
        9  | 28:14.67 |  3:11.55 |    127117    |   141496
       10  | 31:26.47 |  4:42.43 |    141497    |   162689
       11  | 36:09.15 |  3:32.25 |    162690    |   178614
       12  | 39:41.40 |  2:56.72 |    178615    |   191886
       13  | 42:38.37 |  4:31.55 |    191887    |   212266
Track  1
     Filename F:\Музыка\Indie\The Cardigans\1995 - Life\01 - Carnival.wav
     Pre-gap length  0:00:02.00
     Peak level 100.0 %
     Track quality 100.0 %
     Test CRC 455DFDC3
     Copy CRC 455DFDC3
     Cannot be verified as accurate (confidence 30)  [83FE147C], AccurateRip returned [0552FB49]
     Copy OK
Track  2
     Filename F:\Музыка\Indie\The Cardigans\1995 - Life\02 - Gordon's Gardenparty.wav
     Peak level 100.0 %
     Track quality 99.9 %
     Test CRC 38C5568E
     Copy CRC 38C5568E
     Cannot be verified as accurate (confidence 28)  [8D95A06A], AccurateRip returned [6887418C]
     Copy OK
Track  3
     Filename F:\Музыка\Indie\The Cardigans\1995 - Life\03 - Daddy's Car.wav
     Pre-gap length  0:00:01.42
     Peak level 100.0 %
     Track quality 100.0 %
     Test CRC CA7320B5
     Copy CRC CA7320B5
     Cannot be verified as accurate (confidence 28)  [24C244E0], AccurateRip returned [4B40BF0D]
     Copy OK
Track  4
     Filename F:\Музыка\Indie\The Cardigans\1995 - Life\04 - Sick And Tired.wav
     Peak level 85.3 %
     Track quality 100.0 %
     Test CRC 370A4F9D
     Copy CRC 370A4F9D
     Cannot be verified as accurate (confidence 29)  [346E765E], AccurateRip returned [319B54E5]
     Copy OK
Track  5
     Filename F:\Музыка\Indie\The Cardigans\1995 - Life\05 - Tomorrow.wav
     Peak level 100.0 %
     Track quality 100.0 %
     Test CRC E97AC917
     Copy CRC E97AC917
     Cannot be verified as accurate (confidence 28)  [E286D725], AccurateRip returned [C470CE94]
     Copy OK
Track  6
     Filename F:\Музыка\Indie\The Cardigans\1995 - Life\06 - Rise And Shine.wav
     Peak level 100.0 %
     Track quality 100.0 %
     Test CRC C587C7B3
     Copy CRC C587C7B3
     Cannot be verified as accurate (confidence 28)  [43B30A44], AccurateRip returned [7A91E2D3]
     Copy OK
Track  7
     Filename F:\Музыка\Indie\The Cardigans\1995 - Life\07 - Beautiful One.wav
     Pre-gap length  0:00:01.46
     Peak level 100.0 %
     Track quality 100.0 %
     Test CRC 8F6E434D
     Copy CRC 8F6E434D
     Cannot be verified as accurate (confidence 29)  [CD6469B3], AccurateRip returned [21E1D761]
     Copy OK
Track  8
     Filename F:\Музыка\Indie\The Cardigans\1995 - Life\08 - Travelling With Charley.wav
     Peak level 100.0 %
     Track quality 100.0 %
     Test CRC F3755A2A
     Copy CRC F3755A2A
     Cannot be verified as accurate (confidence 29)  [41D0FA8B], AccurateRip returned [AA40F8BE]
     Copy OK
Track  9
     Filename F:\Музыка\Indie\The Cardigans\1995 - Life\09 - Fine.wav
     Pre-gap length  0:00:01.53
     Peak level 100.0 %
     Track quality 100.0 %
     Test CRC 53D16759
     Copy CRC 53D16759
     Cannot be verified as accurate (confidence 29)  [E96EF21E], AccurateRip returned [6B1D011A]
     Copy OK
Track 10
     Filename F:\Музыка\Indie\The Cardigans\1995 - Life\10 - Celia Inside.wav
     Pre-gap length  0:00:01.20
     Peak level 99.8 %
     Track quality 99.9 %
     Test CRC 27C38E09
     Copy CRC 27C38E09
     Cannot be verified as accurate (confidence 29)  [9B8E867F], AccurateRip returned [0A82E4E0]
     Copy OK
Track 11
     Filename F:\Музыка\Indie\The Cardigans\1995 - Life\11 - Hey! Get Out Of My Way.wav
     Peak level 100.0 %
     Track quality 100.0 %
     Test CRC 6FACB5DA
     Copy CRC 6FACB5DA
     Cannot be verified as accurate (confidence 28)  [A4E065A8], AccurateRip returned [19A7C978]
     Copy OK
Track 12
     Filename F:\Музыка\Indie\The Cardigans\1995 - Life\12 - After All....wav
     Pre-gap length  0:00:01.80
     Peak level 86.3 %
     Track quality 99.9 %
     Test CRC 241CEC71
     Copy CRC 241CEC71
     Cannot be verified as accurate (confidence 27)  [FC25A56F], AccurateRip returned [A138D6EF]
     Copy OK
Track 13
     Filename F:\Музыка\Indie\The Cardigans\1995 - Life\13 - Sabbath Bloody Sabbath.wav
     Peak level 100.0 %
     Track quality 100.0 %
     Test CRC 8C125BDA
     Copy CRC 8C125BDA
     Cannot be verified as accurate (confidence 27)  [369812FD], AccurateRip returned [86116799]
     Copy OK
No tracks could be verified as accurate
You may have a different pressing from the one(s) in the database
No errors occurred
End of status report
Код:
AUDIOCHECKER v2.0 beta (build 457) - by Dester - opdester@freemail.hu
~~~~~~~~~~~~~~~~~~~~~~~~~~~~~~~~~~
Started at: среда, 16. 09. 2009. - 23:07.40
13 files found
01 -===- F:\Музыка\Indie\The Cardigans\1995 - Life [Sweden Edition]\01 - Carnival.flac
  Extracted successfully
  Conclusion: this track is CDDA with probability 100%
02 -===- F:\Музыка\Indie\The Cardigans\1995 - Life [Sweden Edition]\02 - Gordon's Gardenparty.flac
  Extracted successfully
  Conclusion: this track is CDDA with probability 100%
03 -===- F:\Музыка\Indie\The Cardigans\1995 - Life [Sweden Edition]\03 - Daddy's Car.flac
  Extracted successfully
  Conclusion: this track is CDDA with probability 100%
04 -===- F:\Музыка\Indie\The Cardigans\1995 - Life [Sweden Edition]\04 - Sick And Tired.flac
  Extracted successfully
  Conclusion: this track is CDDA with probability 100%
05 -===- F:\Музыка\Indie\The Cardigans\1995 - Life [Sweden Edition]\05 - Tomorrow.flac
  Extracted successfully
  Conclusion: this track is CDDA with probability 100%
06 -===- F:\Музыка\Indie\The Cardigans\1995 - Life [Sweden Edition]\06 - Rise And Shine.flac
  Extracted successfully
  Conclusion: this track is CDDA with probability 100%
07 -===- F:\Музыка\Indie\The Cardigans\1995 - Life [Sweden Edition]\07 - Beautiful One.flac
  Extracted successfully
  Conclusion: this track is CDDA with probability 100%
08 -===- F:\Музыка\Indie\The Cardigans\1995 - Life [Sweden Edition]\08 - Travelling With Charley.flac
  Extracted successfully
  Conclusion: this track is CDDA with probability 100%
09 -===- F:\Музыка\Indie\The Cardigans\1995 - Life [Sweden Edition]\09 - Fine.flac
  Extracted successfully
  Conclusion: this track is CDDA with probability 100%
10 -===- F:\Музыка\Indie\The Cardigans\1995 - Life [Sweden Edition]\10 - Celia Inside.flac
  Extracted successfully
  Conclusion: this track is CDDA with probability 100%
11 -===- F:\Музыка\Indie\The Cardigans\1995 - Life [Sweden Edition]\11 - Hey! Get Out Of My Way.flac
  Extracted successfully
  Conclusion: this track is CDDA with probability 100%
12 -===- F:\Музыка\Indie\The Cardigans\1995 - Life [Sweden Edition]\12 - After All....flac
  Extracted successfully
  Conclusion: this track is CDDA with probability 99%
13 -===- F:\Музыка\Indie\The Cardigans\1995 - Life [Sweden Edition]\13 - Sabbath Bloody Sabbath.flac
  Extracted successfully
  Conclusion: this track is CDDA with probability 100%
Finished at: среда, 16. 09. 2009. - 23:10.55 (operation time: 0:03.15)
Доступно также Американское издание альбома в lossless:
The Cardigans - Life [US Edition]
Правила, инструкции, FAQ!!!
Торрент  Добавлен [26 мар 2019, 20:26] Скачать торрент Магнет ссылка
Скачать торрент
[ Размер 13.39 КБ / Просмотров 4 ]

Статус
Проверен 
 
Размер  303.26 МБ
Приватный: Нет (DHT включён)
.torrent скачан  0
 


     Отправить личное сообщение
   
Страница 1 из 1
Показать сообщения за:  Поле сортировки  
Начать новую тему Ответить на тему


Сейчас этот форум просматривают: нет зарегистрированных пользователей и гости: 0


Вы не можете начинать темы
Вы не можете отвечать на сообщения
Вы не можете редактировать свои сообщения
Вы не можете удалять свои сообщения
Вы не можете добавлять вложения

Перейти:  
cron
cron