Начать новую тему Ответить на тему
Статистика раздачи
Размер: 566.03 МБ | Добавлен: 26 мар 2019, 20:08 | Скачали: 0
Сидеров: 0  [0 байт/сек]    Личеров: 0  [0 байт/сек]
Пред. тема | След. тема 

Автор
Сообщение

СообщениеДобавлено: 26 мар 2019, 20:08 

Ответить с цитатой 

Nicky Holland - 2 альбома (1992, 1997)
Жанр: Smooth Jazz, Contemporary Jazz, Easy Listening
Годы выпуска дисков: 1992, 1997
Издатель (лейбл): Epic Records
Производители дисков: Великобритания, США
Аудио кодек: APE
Тип рипа: tracks+.cue
Битрейт аудио: lossless
Источники: собственные компакт-диски
Наличие сканов в содержимом раздачи: да
Nicky Holland - 1992
Номер по каталогу: 01-469484-10
Продолжительность: 46:23
Треклист:
01. Prelude (1:50)
02. Lady Killer (4:28)
03. Tongue-Tied And Twisted (4:49)
04. Colouring Blue (4:12)
05. Independence Days (4:14)
06. This Town (5:04)
07. Box of Rain (4:37)
08. Face of the Moon (3:35)
09. Running Around Again (5:02)
10. The Night We Never Met (5:24)
11. On the Stairs (3:38)
Код:
Exact Audio Copy V0.99 prebeta 5 from 4. May 2009
EAC extraction logfile from 1. August 2011, 19:26
Nicky Holland / Nicky Holland
Used drive  : PIONEER DVD-RW  DVR-212D   Adapter: 1  ID: 1
Read mode               : Secure
Utilize accurate stream : Yes
Defeat audio cache      : Yes
Make use of C2 pointers : No
Read offset correction                      : 48
Overread into Lead-In and Lead-Out          : No
Fill up missing offset samples with silence : Yes
Delete leading and trailing silent blocks   : No
Null samples used in CRC calculations       : Yes
Used interface                              : Installed external ASPI interface
Gap handling                                : Appended to previous track
Used output format : Internal WAV Routines
Sample format      : 44.100 Hz; 16 Bit; Stereo
TOC of the extracted CD
     Track |   Start  |  Length  | Start sector | End sector
    ---------------------------------------------------------
        1  |  0:00.00 |  1:50.12 |         0    |     8261
        2  |  1:50.12 |  4:28.63 |      8262    |    28424
        3  |  6:19.00 |  4:49.72 |     28425    |    50171
        4  | 11:08.72 |  4:12.35 |     50172    |    69106
        5  | 15:21.32 |  4:14.60 |     69107    |    88216
        6  | 19:36.17 |  5:04.40 |     88217    |   111056
        7  | 24:40.57 |  4:37.28 |    111057    |   131859
        8  | 29:18.10 |  3:35.30 |    131860    |   148014
        9  | 32:53.40 |  5:02.05 |    148015    |   170669
       10  | 37:55.45 |  5:24.70 |    170670    |   195039
       11  | 43:20.40 |  3:08.35 |    195040    |   209174
Track  1
     Filename E:\digest\\Nicky Holland\Nicky Holland (1992)\01 - Prelude.wav
     Pre-gap length  0:00:02.00
     Peak level 51.7 %
     Track quality 100.0 %
     Copy CRC F4F69520
     Track not present in AccurateRip database
     Copy OK
Track  2
     Filename E:\digest\\Nicky Holland\Nicky Holland (1992)\02 - Lady Killer.wav
     Peak level 99.2 %
     Track quality 100.0 %
     Copy CRC ED8A241D
     Track not present in AccurateRip database
     Copy OK
Track  3
     Filename E:\digest\\Nicky Holland\Nicky Holland (1992)\03 - Tongue-Tied And Twisted.wav
     Peak level 99.2 %
     Track quality 100.0 %
     Copy CRC 048782EC
     Track not present in AccurateRip database
     Copy OK
Track  4
     Filename E:\digest\\Nicky Holland\Nicky Holland (1992)\04 - Colouring Blue.wav
     Peak level 99.2 %
     Track quality 100.0 %
     Copy CRC A7E42A53
     Track not present in AccurateRip database
     Copy OK
Track  5
     Filename E:\digest\\Nicky Holland\Nicky Holland (1992)\05 - Independence Days.wav
     Pre-gap length  0:00:01.17
     Peak level 99.2 %
     Track quality 100.0 %
     Copy CRC 718FFF8F
     Track not present in AccurateRip database
     Copy OK
Track  6
     Filename E:\digest\\Nicky Holland\Nicky Holland (1992)\06 - This Town.wav
     Pre-gap length  0:00:00.25
     Peak level 99.2 %
     Track quality 100.0 %
     Copy CRC 81668A1F
     Track not present in AccurateRip database
     Copy OK
Track  7
     Filename E:\digest\\Nicky Holland\Nicky Holland (1992)\07 - Box of Rain.wav
     Pre-gap length  0:00:01.65
     Peak level 99.2 %
     Track quality 100.0 %
     Copy CRC 7644EDF8
     Track not present in AccurateRip database
     Copy OK
Track  8
     Filename E:\digest\\Nicky Holland\Nicky Holland (1992)\08 - Face of the Moon.wav
     Pre-gap length  0:00:00.33
     Peak level 96.5 %
     Track quality 100.0 %
     Copy CRC 78733D73
     Track not present in AccurateRip database
     Copy OK
Track  9
     Filename E:\digest\\Nicky Holland\Nicky Holland (1992)\09 - Running Around Again.wav
     Peak level 99.2 %
     Track quality 100.0 %
     Copy CRC FF21FB37
     Track not present in AccurateRip database
     Copy OK
Track 10
     Filename E:\digest\\Nicky Holland\Nicky Holland (1992)\10 - The Night We Never Met.wav
     Peak level 94.4 %
     Track quality 100.0 %
     Copy CRC 6DC3E620
     Track not present in AccurateRip database
     Copy OK
Track 11
     Filename E:\digest\\Nicky Holland\Nicky Holland (1992)\11 - On the Stairs.wav
     Pre-gap length  0:00:00.48
     Peak level 66.9 %
     Track quality 100.0 %
     Copy CRC 3A96F4D2
     Track not present in AccurateRip database
     Copy OK
None of the tracks are present in the AccurateRip database
No errors occurred
End of status report
Код:
REM GENRE Jazz
REM DATE 1992
REM DISCID 8D0AE50B
REM COMMENT "ExactAudioCopy v0.99pb5"
PERFORMER "Nicky Holland"
TITLE "Nicky Holland"
FILE "\Nicky Holland\Nicky Holland (1992)\01 - Prelude.ape" WAVE
  TRACK 01 AUDIO
    TITLE "Prelude"
    PERFORMER "Nicky Holland"
    INDEX 01 00:00:00
FILE "\Nicky Holland\Nicky Holland (1992)\02 - Lady Killer.ape" WAVE
  TRACK 02 AUDIO
    TITLE "Lady Killer"
    PERFORMER "Nicky Holland"
    INDEX 01 00:00:00
FILE "\Nicky Holland\Nicky Holland (1992)\03 - Tongue-Tied And Twisted.ape" WAVE
  TRACK 03 AUDIO
    TITLE "Tongue-Tied And Twisted"
    PERFORMER "Nicky Holland"
    INDEX 01 00:00:00
FILE "\Nicky Holland\Nicky Holland (1992)\04 - Colouring Blue.ape" WAVE
  TRACK 04 AUDIO
    TITLE "Colouring Blue"
    PERFORMER "Nicky Holland"
    INDEX 01 00:00:00
  TRACK 05 AUDIO
    TITLE "Independence Days"
    PERFORMER "Nicky Holland"
    INDEX 00 04:11:18
FILE "\Nicky Holland\Nicky Holland (1992)\05 - Independence Days.ape" WAVE
    INDEX 01 00:00:00
  TRACK 06 AUDIO
    TITLE "This Town"
    PERFORMER "Nicky Holland"
    INDEX 00 04:14:35
FILE "\Nicky Holland\Nicky Holland (1992)\06 - This Town.ape" WAVE
    INDEX 01 00:00:00
  TRACK 07 AUDIO
    TITLE "Box of Rain"
    PERFORMER "Nicky Holland"
    INDEX 00 05:02:50
FILE "\Nicky Holland\Nicky Holland (1992)\07 - Box of Rain.ape" WAVE
    INDEX 01 00:00:00
  TRACK 08 AUDIO
    TITLE "Face of the Moon"
    PERFORMER "Nicky Holland"
    INDEX 00 04:36:70
FILE "\Nicky Holland\Nicky Holland (1992)\08 - Face of the Moon.ape" WAVE
    INDEX 01 00:00:00
FILE "\Nicky Holland\Nicky Holland (1992)\09 - Running Around Again.ape" WAVE
  TRACK 09 AUDIO
    TITLE "Running Around Again"
    PERFORMER "Nicky Holland"
    INDEX 01 00:00:00
FILE "\Nicky Holland\Nicky Holland (1992)\10 - The Night We Never Met.ape" WAVE
  TRACK 10 AUDIO
    TITLE "The Night We Never Met"
    PERFORMER "Nicky Holland"
    INDEX 01 00:00:00
  TRACK 11 AUDIO
    TITLE "On the Stairs"
    PERFORMER "Nicky Holland"
    INDEX 00 05:24:22
FILE "\Nicky Holland\Nicky Holland (1992)\11 - On the Stairs.ape" WAVE
    INDEX 01 00:00:00
Код:
E:\digest\Nicky Holland\Nicky Holland (1992)>aucdtect *.wav -v -m0 -d
auCDtect: CD records authenticity detector, version 0.8.2
Copyright (c) 2004 Oleg Berngardt. All rights reserved.
Copyright (c) 2004 Alexander Djourik. All rights reserved.
------------------------------------------------------------
Processing file:        [01 - Prelude.wav]
Detected average hi-boundary frequency: 2.016621e+004 Hz
Detected average lo-boundary frequency: 1.358056e+004 Hz
Detected average hi-cut frequency: 2.119576e+004 Hz
Detected average lo-cut frequency: 1.539149e+004 Hz
Maximum probablis boundary frequency: 2.189100e+004 Hz
Coefficient of nonlinearity of a phase: 1.171060e+000
First order smothness: 3.741554e-001
Second order smothness: 8.505068e-001
------------------------------------------------------------
This track looks like CDDA with probability 100%
------------------------------------------------------------
Processing file:        [02 - Lady Killer.wav]
Detected average hi-boundary frequency: 2.028785e+004 Hz
Detected average lo-boundary frequency: 1.367628e+004 Hz
Detected average hi-cut frequency: 2.156961e+004 Hz
Detected average lo-cut frequency: 8.310597e+003 Hz
Maximum probablis boundary frequency: 2.189100e+004 Hz
Coefficient of nonlinearity of a phase: 6.647732e-001
First order smothness: 4.110535e-001
Second order smothness: 4.417962e-001
------------------------------------------------------------
This track looks like CDDA with probability 100%
------------------------------------------------------------
Processing file:        [03 - Tongue-Tied And Twisted.wav]
Detected average hi-boundary frequency: 2.019468e+004 Hz
Detected average lo-boundary frequency: 1.401881e+004 Hz
Detected average hi-cut frequency: 2.159586e+004 Hz
Detected average lo-cut frequency: 1.138806e+004 Hz
Maximum probablis boundary frequency: 2.189100e+004 Hz
Coefficient of nonlinearity of a phase: 5.753123e-001
First order smothness: 3.540532e-001
Second order smothness: 6.629285e-001
------------------------------------------------------------
This track looks like CDDA with probability 100%
------------------------------------------------------------
Processing file:        [04 - Colouring Blue.wav]
Detected average hi-boundary frequency: 2.013533e+004 Hz
Detected average lo-boundary frequency: 1.334137e+004 Hz
Detected average hi-cut frequency: 2.150835e+004 Hz
Detected average lo-cut frequency: 8.859075e+003 Hz
Maximum probablis boundary frequency: 2.189100e+004 Hz
Coefficient of nonlinearity of a phase: 8.293569e-001
First order smothness: 3.642409e-001
Second order smothness: 5.884743e-001
------------------------------------------------------------
This track looks like CDDA with probability 100%
------------------------------------------------------------
Processing file:        [05 - Independence Days.wav]
Detected average hi-boundary frequency: 2.028303e+004 Hz
Detected average lo-boundary frequency: 1.442628e+004 Hz
Detected average hi-cut frequency: 2.154866e+004 Hz
Detected average lo-cut frequency: 1.382428e+004 Hz
Maximum probablis boundary frequency: 2.189100e+004 Hz
Coefficient of nonlinearity of a phase: 8.256159e-001
First order smothness: 3.607456e-001
Second order smothness: 7.288012e-001
------------------------------------------------------------
This track looks like CDDA with probability 100%
------------------------------------------------------------
Processing file:        [06 - This Town.wav]
Detected average hi-boundary frequency: 2.021587e+004 Hz
Detected average lo-boundary frequency: 1.363259e+004 Hz
Detected average hi-cut frequency: 2.149555e+004 Hz
Detected average lo-cut frequency: 9.770048e+003 Hz
Maximum probablis boundary frequency: 2.189100e+004 Hz
Coefficient of nonlinearity of a phase: 8.588821e-001
First order smothness: 3.572965e-001
Second order smothness: 6.301075e-001
------------------------------------------------------------
This track looks like CDDA with probability 100%
------------------------------------------------------------
Processing file:        [07 - Box of Rain.wav]
Detected average hi-boundary frequency: 2.023838e+004 Hz
Detected average lo-boundary frequency: 1.348514e+004 Hz
Detected average hi-cut frequency: 2.160841e+004 Hz
Detected average lo-cut frequency: 1.015647e+004 Hz
Maximum probablis boundary frequency: 2.189100e+004 Hz
Coefficient of nonlinearity of a phase: 5.778229e-001
First order smothness: 3.699228e-001
Second order smothness: 5.686472e-001
------------------------------------------------------------
This track looks like CDDA with probability 100%
------------------------------------------------------------
Processing file:        [08 - Face of the Moon.wav]
Detected average hi-boundary frequency: 2.021701e+004 Hz
Detected average lo-boundary frequency: 1.359702e+004 Hz
Detected average hi-cut frequency: 2.149945e+004 Hz
Detected average lo-cut frequency: 1.185628e+004 Hz
Maximum probablis boundary frequency: 2.189100e+004 Hz
Coefficient of nonlinearity of a phase: 2.144056e-001
First order smothness: 3.910229e-001
Second order smothness: 6.378938e-001
------------------------------------------------------------
This track looks like CDDA with probability 100%
------------------------------------------------------------
Processing file:        [09 - Running Around Again.wav]
Detected average hi-boundary frequency: 2.027173e+004 Hz
Detected average lo-boundary frequency: 1.348426e+004 Hz
Detected average hi-cut frequency: 2.140218e+004 Hz
Detected average lo-cut frequency: 1.424269e+004 Hz
Maximum probablis boundary frequency: 2.189100e+004 Hz
Coefficient of nonlinearity of a phase: 3.855728e-001
First order smothness: 4.039348e-001
Second order smothness: 6.996619e-001
------------------------------------------------------------
This track looks like CDDA with probability 100%
------------------------------------------------------------
Processing file:        [10 - The Night We Never Met.wav]
Detected average hi-boundary frequency: 2.023296e+004 Hz
Detected average lo-boundary frequency: 1.411980e+004 Hz
Detected average hi-cut frequency: 2.125170e+004 Hz
Detected average lo-cut frequency: 1.508517e+004 Hz
Maximum probablis boundary frequency: 1.981900e+004 Hz
Coefficient of nonlinearity of a phase: 8.315523e-001
First order smothness: 4.124893e-001
Second order smothness: 7.951876e-001
------------------------------------------------------------
This track looks like CDDA with probability 100%
------------------------------------------------------------
Processing file:        [11 - On the Stairs.wav]
Detected average hi-boundary frequency: 2.031539e+004 Hz
Detected average lo-boundary frequency: 1.301239e+004 Hz
Detected average hi-cut frequency: 2.122054e+004 Hz
Detected average lo-cut frequency: 1.399691e+004 Hz
Maximum probablis boundary frequency: 2.189100e+004 Hz
Coefficient of nonlinearity of a phase: 1.657987e-001
First order smothness: 3.180247e-001
Second order smothness: 7.679012e-001
------------------------------------------------------------
This track looks like CDDA with probability 100%
------------------------------------------------------------
Final Conclusion:
------------------------------------------------------------
These tracks looks like CDDA with probability 100%
#777Sense And Sensuality - 1997
Номер по каталогу: 487992 2
Продолжительность: 48:00
Треклист:
01. Paperchase (3:29)
02. Nobody's Girl (4:30)
03. Dear Ingrid (5:27)
04. In a Broken Dream (4:21)
05. Nothing (4:17)
06. Falling Water (4:52)
07. New York Inside My Head (4:14)
08. Cry To Me (4:50)
09. Hat Full of Stars (5:02)
10. Lay Down (3:26)
11. John's First Wedding (4:39)
Код:
Exact Audio Copy V0.99 prebeta 5 from 4. May 2009
EAC extraction logfile from 7. October 2011, 20:58
Nicky Holland / Sense And Sensuality
Used drive  : PIONEER DVD-RW  DVR-212D   Adapter: 1  ID: 1
Read mode               : Secure
Utilize accurate stream : Yes
Defeat audio cache      : Yes
Make use of C2 pointers : No
Read offset correction                      : 48
Overread into Lead-In and Lead-Out          : No
Fill up missing offset samples with silence : Yes
Delete leading and trailing silent blocks   : No
Null samples used in CRC calculations       : Yes
Used interface                              : Installed external ASPI interface
Gap handling                                : Appended to previous track
Used output format : Internal WAV Routines
Sample format      : 44.100 Hz; 16 Bit; Stereo
TOC of the extracted CD
     Track |   Start  |  Length  | Start sector | End sector
    ---------------------------------------------------------
        1  |  0:00.00 |  3:29.47 |         0    |    15721
        2  |  3:29.47 |  4:30.25 |     15722    |    35996
        3  |  7:59.72 |  5:27.48 |     35997    |    60569
        4  | 13:27.45 |  4:21.12 |     60570    |    80156
        5  | 17:48.57 |  4:17.23 |     80157    |    99454
        6  | 22:06.05 |  4:53.02 |     99455    |   121431
        7  | 26:59.07 |  4:14.65 |    121432    |   140546
        8  | 31:13.72 |  3:55.55 |    140547    |   158226
        9  | 35:09.52 |  4:50.05 |    158227    |   179981
       10  | 39:59.57 |  3:26.40 |    179982    |   195471
       11  | 43:26.22 |  4:39.73 |    195472    |   216469
Track  1
     Filename E:\digest\\Nicky Holland\Sense And Sensuality (1997)\01 - Paperchase.wav
     Pre-gap length  0:00:02.00
     Peak level 100.0 %
     Track quality 100.0 %
     Copy CRC 54615419
     Track not present in AccurateRip database
     Copy OK
Track  2
     Filename E:\digest\\Nicky Holland\Sense And Sensuality (1997)\02 - Nobody's Girl.wav
     Peak level 99.8 %
     Track quality 100.0 %
     Copy CRC 6241FBC2
     Track not present in AccurateRip database
     Copy OK
Track  3
     Filename E:\digest\\Nicky Holland\Sense And Sensuality (1997)\03 - Dear Ingrid.wav
     Pre-gap length  0:00:02.72
     Peak level 100.0 %
     Track quality 100.0 %
     Copy CRC 64522E1B
     Track not present in AccurateRip database
     Copy OK
Track  4
     Filename E:\digest\\Nicky Holland\Sense And Sensuality (1997)\04 - In a Broken Dream.wav
     Peak level 100.0 %
     Track quality 100.0 %
     Copy CRC 6E475F7D
     Track not present in AccurateRip database
     Copy OK
Track  5
     Filename E:\digest\\Nicky Holland\Sense And Sensuality (1997)\05 - Nothing.wav
     Peak level 100.0 %
     Track quality 100.0 %
     Copy CRC 052BD20E
     Track not present in AccurateRip database
     Copy OK
Track  6
     Filename E:\digest\\Nicky Holland\Sense And Sensuality (1997)\06 - Falling Water.wav
     Peak level 100.0 %
     Track quality 100.0 %
     Copy CRC 91644E51
     Track not present in AccurateRip database
     Copy OK
Track  7
     Filename E:\digest\\Nicky Holland\Sense And Sensuality (1997)\07 - New York Inside My Head.wav
     Peak level 100.0 %
     Track quality 100.0 %
     Copy CRC F7D5F131
     Track not present in AccurateRip database
     Copy OK
Track  8
     Filename E:\digest\\Nicky Holland\Sense And Sensuality (1997)\08 - Cry To Me.wav
     Peak level 100.0 %
     Track quality 100.0 %
     Copy CRC FE3D4DD4
     Track not present in AccurateRip database
     Copy OK
Track  9
     Filename E:\digest\\Nicky Holland\Sense And Sensuality (1997)\09 - Hat Full of Stars.wav
     Peak level 100.0 %
     Track quality 100.0 %
     Copy CRC 86984B4B
     Track not present in AccurateRip database
     Copy OK
Track 10
     Filename E:\digest\\Nicky Holland\Sense And Sensuality (1997)\10 - Lay Down.wav
     Peak level 100.0 %
     Track quality 99.9 %
     Copy CRC 203CD2FB
     Track not present in AccurateRip database
     Copy OK
Track 11
     Filename E:\digest\\Nicky Holland\Sense And Sensuality (1997)\11 - John's First Wedding.wav
     Pre-gap length  0:00:01.27
     Peak level 100.0 %
     Track quality 100.0 %
     Copy CRC 86E2D6AD
     Track not present in AccurateRip database
     Copy OK
None of the tracks are present in the AccurateRip database
No errors occurred
End of status report
Код:
REM GENRE "Easy Listening"
REM DATE 1997
REM DISCID 750B460B
REM COMMENT "ExactAudioCopy v0.99pb5"
PERFORMER "Nicky Holland"
TITLE "Sense And Sensuality"
FILE "\Nicky Holland\Sense And Sensuality (1997)\01 - Paperchase.ape" WAVE
  TRACK 01 AUDIO
    TITLE "Paperchase"
    PERFORMER "Nicky Holland"
    INDEX 01 00:00:00
FILE "\Nicky Holland\Sense And Sensuality (1997)\02 - Nobody's Girl.ape" WAVE
  TRACK 02 AUDIO
    TITLE "Nobody's Girl"
    PERFORMER "Nicky Holland"
    INDEX 01 00:00:00
  TRACK 03 AUDIO
    TITLE "Dear Ingrid"
    PERFORMER "Nicky Holland"
    INDEX 00 04:27:28
FILE "\Nicky Holland\Sense And Sensuality (1997)\03 - Dear Ingrid.ape" WAVE
    INDEX 01 00:00:00
FILE "\Nicky Holland\Sense And Sensuality (1997)\04 - In a Broken Dream.ape" WAVE
  TRACK 04 AUDIO
    TITLE "In a Broken Dream"
    PERFORMER "Nicky Holland"
    INDEX 01 00:00:00
FILE "\Nicky Holland\Sense And Sensuality (1997)\05 - Nothing.ape" WAVE
  TRACK 05 AUDIO
    TITLE "Nothing"
    PERFORMER "Nicky Holland"
    INDEX 01 00:00:00
FILE "\Nicky Holland\Sense And Sensuality (1997)\06 - Falling Water.ape" WAVE
  TRACK 06 AUDIO
    TITLE "Falling Water"
    PERFORMER "Nicky Holland"
    INDEX 01 00:00:00
FILE "\Nicky Holland\Sense And Sensuality (1997)\07 - New York Inside My Head.ape" WAVE
  TRACK 07 AUDIO
    TITLE "New York Inside My Head"
    PERFORMER "Nicky Holland"
    INDEX 01 00:00:00
FILE "\Nicky Holland\Sense And Sensuality (1997)\08 - Cry To Me.ape" WAVE
  TRACK 08 AUDIO
    TITLE "Cry To Me"
    PERFORMER "Nicky Holland"
    INDEX 01 00:00:00
FILE "\Nicky Holland\Sense And Sensuality (1997)\09 - Hat Full of Stars.ape" WAVE
  TRACK 09 AUDIO
    TITLE "Hat Full of Stars"
    PERFORMER "Nicky Holland"
    INDEX 01 00:00:00
FILE "\Nicky Holland\Sense And Sensuality (1997)\10 - Lay Down.ape" WAVE
  TRACK 10 AUDIO
    TITLE "Lay Down"
    PERFORMER "Nicky Holland"
    INDEX 01 00:00:00
  TRACK 11 AUDIO
    TITLE "John's First Wedding"
    PERFORMER "Nicky Holland"
    INDEX 00 03:25:13
FILE "\Nicky Holland\Sense And Sensuality (1997)\11 - John's First Wedding.ape" WAVE
    INDEX 01 00:00:00
Код:
E:\digest\Nicky Holland\Sense And Sensuality (1997)>aucdtect *.wav -v -m0 -d
auCDtect: CD records authenticity detector, version 0.8.2
Copyright (c) 2004 Oleg Berngardt. All rights reserved.
Copyright (c) 2004 Alexander Djourik. All rights reserved.
------------------------------------------------------------
Processing file:        [01 - Paperchase.wav]
Detected average hi-boundary frequency: 2.035651e+004 Hz
Detected average lo-boundary frequency: 1.418645e+004 Hz
Detected average hi-cut frequency: 2.173772e+004 Hz
Detected average lo-cut frequency: 1.497544e+004 Hz
Maximum probablis boundary frequency: 2.189100e+004 Hz
Coefficient of nonlinearity of a phase: 7.753349e-001
First order smothness: 3.774423e-001
Second order smothness: 7.371226e-001
------------------------------------------------------------
This track looks like CDDA with probability 99%
------------------------------------------------------------
Processing file:        [02 - Nobody's Girl.wav]
Detected average hi-boundary frequency: 2.094756e+004 Hz
Detected average lo-boundary frequency: 1.671322e+004 Hz
Detected average hi-cut frequency: 2.183961e+004 Hz
Detected average lo-cut frequency: 1.730837e+004 Hz
Maximum probablis boundary frequency: 2.189100e+004 Hz
Coefficient of nonlinearity of a phase: 2.093692e-001
First order smothness: 4.981106e-001
Second order smothness: 6.327722e-001
------------------------------------------------------------
This track looks like CDDA with probability 100%
------------------------------------------------------------
Processing file:        [03 - Dear Ingrid.wav]
Detected average hi-boundary frequency: 2.025642e+004 Hz
Detected average lo-boundary frequency: 1.348965e+004 Hz
Detected average hi-cut frequency: 2.176201e+004 Hz
Detected average lo-cut frequency: 1.191496e+004 Hz
Maximum probablis boundary frequency: 2.189100e+004 Hz
Coefficient of nonlinearity of a phase: 6.411101e-001
First order smothness: 3.554422e-001
Second order smothness: 7.295918e-001
------------------------------------------------------------
This track looks like CDDA with probability 100%
------------------------------------------------------------
Processing file:        [04 - In a Broken Dream.wav]
Detected average hi-boundary frequency: 2.074142e+004 Hz
Detected average lo-boundary frequency: 1.508458e+004 Hz
Detected average hi-cut frequency: 2.177517e+004 Hz
Detected average lo-cut frequency: 1.649690e+004 Hz
Maximum probablis boundary frequency: 2.189100e+004 Hz
Coefficient of nonlinearity of a phase: 1.902565e-001
First order smothness: 4.690612e-001
Second order smothness: 6.422475e-001
------------------------------------------------------------
This track looks like CDDA with probability 100%
------------------------------------------------------------
Processing file:        [05 - Nothing.wav]
Detected average hi-boundary frequency: 2.039715e+004 Hz
Detected average lo-boundary frequency: 1.463912e+004 Hz
Detected average hi-cut frequency: 2.171908e+004 Hz
Detected average lo-cut frequency: 1.574356e+004 Hz
Maximum probablis boundary frequency: 2.189100e+004 Hz
Coefficient of nonlinearity of a phase: 6.542914e-001
First order smothness: 3.652111e-001
Second order smothness: 7.802237e-001
------------------------------------------------------------
This track looks like CDDA with probability 100%
------------------------------------------------------------
Processing file:        [06 - Falling Water.wav]
Detected average hi-boundary frequency: 2.048904e+004 Hz
Detected average lo-boundary frequency: 1.433596e+004 Hz
Detected average hi-cut frequency: 2.185117e+004 Hz
Detected average lo-cut frequency: 1.520734e+004 Hz
Maximum probablis boundary frequency: 2.189100e+004 Hz
Coefficient of nonlinearity of a phase: 4.488870e-001
First order smothness: 4.180666e-001
Second order smothness: 7.068146e-001
------------------------------------------------------------
This track looks like CDDA with probability 100%
------------------------------------------------------------
Processing file:        [07 - New York Inside My Head.wav]
Detected average hi-boundary frequency: 2.069530e+004 Hz
Detected average lo-boundary frequency: 1.424690e+004 Hz
Detected average hi-cut frequency: 2.178878e+004 Hz
Detected average lo-cut frequency: 1.975342e+004 Hz
Maximum probablis boundary frequency: 1.966200e+004 Hz
Coefficient of nonlinearity of a phase: 7.274642e-001
First order smothness: 4.357013e-001
Second order smothness: 9.020036e-001
------------------------------------------------------------
This track looks like CDDA with probability 100%
------------------------------------------------------------
Processing file:        [08 - Cry To Me.wav]
Detected average hi-boundary frequency: 2.097798e+004 Hz
Detected average lo-boundary frequency: 1.559310e+004 Hz
Detected average hi-cut frequency: 2.186256e+004 Hz
Detected average lo-cut frequency: 1.940046e+004 Hz
Maximum probablis boundary frequency: 2.189100e+004 Hz
Coefficient of nonlinearity of a phase: 1.043830e+000
First order smothness: 3.796770e-001
Second order smothness: 8.062229e-001
------------------------------------------------------------
This track looks like CDDA with probability 100%
------------------------------------------------------------
Processing file:        [09 - Hat Full of Stars.wav]
Detected average hi-boundary frequency: 2.035143e+004 Hz
Detected average lo-boundary frequency: 1.337222e+004 Hz
Detected average hi-cut frequency: 2.169530e+004 Hz
Detected average lo-cut frequency: 1.203204e+004 Hz
Maximum probablis boundary frequency: 2.189100e+004 Hz
Coefficient of nonlinearity of a phase: 5.527775e-001
First order smothness: 4.046095e-001
Second order smothness: 7.103073e-001
------------------------------------------------------------
This track looks like CDDA with probability 100%
------------------------------------------------------------
Processing file:        [10 - Lay Down.wav]
Detected average hi-boundary frequency: 2.079691e+004 Hz
Detected average lo-boundary frequency: 1.561728e+004 Hz
Detected average hi-cut frequency: 2.171022e+004 Hz
Detected average lo-cut frequency: 1.709847e+004 Hz
Maximum probablis boundary frequency: 2.189100e+004 Hz
Coefficient of nonlinearity of a phase: 4.533481e-002
First order smothness: 4.982014e-001
Second order smothness: 7.248201e-001
------------------------------------------------------------
This track looks like CDDA with probability 100%
------------------------------------------------------------
Processing file:        [11 - John's First Wedding.wav]
Detected average hi-boundary frequency: 2.026264e+004 Hz
Detected average lo-boundary frequency: 1.327883e+004 Hz
Detected average hi-cut frequency: 2.158370e+004 Hz
Detected average lo-cut frequency: 1.111326e+004 Hz
Maximum probablis boundary frequency: 2.189100e+004 Hz
Coefficient of nonlinearity of a phase: 2.165038e-001
First order smothness: 3.722628e-001
Second order smothness: 7.196417e-001
------------------------------------------------------------
This track looks like CDDA with probability 100%
------------------------------------------------------------
Final Conclusion:
------------------------------------------------------------
These tracks looks like CDDA with probability 100%
Скриншоты спектров частот - в раздаче.
Правила, инструкции, FAQ!!!
Торрент  Добавлен [26 мар 2019, 20:08] Скачать торрент Магнет ссылка
Скачать торрент
[ Размер 14.98 КБ / Просмотров 2 ]

Статус
Проверен 
 
Размер  566.03 МБ
Приватный: Нет (DHT включён)
.torrent скачан  0
 


     Отправить личное сообщение
   
Страница 1 из 1
Показать сообщения за:  Поле сортировки  
Начать новую тему Ответить на тему


Сейчас этот форум просматривают: нет зарегистрированных пользователей и гости: 0


Вы не можете начинать темы
Вы не можете отвечать на сообщения
Вы не можете редактировать свои сообщения
Вы не можете удалять свои сообщения
Вы не можете добавлять вложения

Перейти:  
cron