Начать новую тему Ответить на тему
Статистика раздачи
Размер: 873.11 МБ | Добавлен: 07 янв 2020, 21:35 | Скачали: 0
Сидеров: 6  [0 байт/сек]    Личеров: 1  [0 байт/сек]
Пред. тема | След. тема 

Автор
Сообщение

СообщениеДобавлено: 07 янв 2020, 21:35 

Ответить с цитатой 

The Specials - The Specials (1979)
Жанр: Ska
Носитель: LP
Год выпуска: 1980
Лейбл: Chrysalis ‎– CHR 1265
Страна-производитель: USA
Аудио кодек: FLAC
Тип рипа: tracks+.cue
Формат записи: 24/96
Формат раздачи: 24/96
Продолжительность: 00:43:57
Треклист:
Side 1
A1 - A Message To You Rudy 2:53
A2 - Do The Dog 2:09
A3 - It’s Up To You 3:25
A4 - Nite Klub 3:22
A5 - Doesn’t Make It Alright 3:26
A6 - Concrete Jungle 3:18
A7 - Too Hot 3:09
Side 2
B1 - Monkey Man 2:45
B2 - (Dawning Of A) New Era 2:24
B3 - Blank Expression 2:43
B4 - Stupid Marriage 3:49
B5 - Too Much Too Young 2:16
B6 - Gangsters Producer – Specials, The 2:43
B7 - Little Bitch 2:31
B8 - You’re Wondering Now 2:36
Companies etc
• Engineered At – T.W. Studios
• Mastered At – Allen Zentz Mastering
• Published By – Plangent Visions Music Inc.
• Published By – Melodisc Music Ltd.
• Published By – Carbert Music, Inc.
• Published By – Wb Music Corp.
• Published By – Copyright Control
• Marketed By – Chrysalis Records Ltd.
• Phonographic Copyright (p) – Chrysalis Records
• Copyright (c) – Chrysalis Records
Credits
• Bass – Horace
• Drums – Brad
• Engineer – Dave Jordan
• Guitar – Lynval, Roddy
• Horns – Dick Cuthell, Rico Rodriguez
• Lacquer Cut By – CB
• Organ – Jerry
• Producer – Elvis Costello (tracks: A1 to B5, B7, B8)
• Vocals – Neville, Terry
Notes
Engineered at TW Studios.
Barcode and Other Identifiers
• Barcode (Printed): 0 7558-51265-1
• Matrix / Runout (Runout Side A [Etched]): \5 CHR-1265-AS SM-1 AZ CB E6
• Matrix / Runout (Runout Side B [Etched]): \5 CHR-1265-BS SM-1 AZ CB H8
Источник оцифровки: третьим лицом
Код класса состояния винила: NM
Устройство воспроизведения: Technics SL1200 Mk2
Головка звукоснимателя: Shure V15 Typeii
Предварительный усилитель: Pioneer SX850
АЦП: E-MU-0404
Программа-оцифровщик: Audacity
Обработка: iZtopeRx manual clickrepair
Доп. информация:
foobar2000 1.2.4 / Dynamic Range Meter 1.1.1
log date: 2014-05-17 17:19:51
--------------------------------------------------------------------------------
Analyzed: The Specials / The Specials (1980) Chrysalis
--------------------------------------------------------------------------------
DR Peak RMS Duration Track
--------------------------------------------------------------------------------
DR13 -6.12 dB -21.31 dB 2:53 01-A Message To You Rudy
DR11 -6.12 dB -18.35 dB 2:10 02-Do The Dog
DR12 -6.12 dB -21.45 dB 3:27 03-It's Up To You
DR11 -6.12 dB -19.84 dB 3:23 04-Nite Klub
DR14 -6.12 dB -22.53 dB 3:27 05-Doesn't Make It Alright
DR11 -6.12 dB -19.06 dB 3:20 06-Concrete Jungle
DR15 -6.12 dB -23.86 dB 3:12 07-Too Hot
DR11 -6.12 dB -18.33 dB 2:46 08-Monkey Man
DR11 -5.06 dB -19.34 dB 2:26 09-(Dawning Of A) New Era
DR14 -6.12 dB -23.37 dB 2:45 10-Blank Expression
DR10 -6.12 dB -20.24 dB 3:51 11-Stupid Marriage
DR9 -6.09 dB -17.12 dB 2:17 12-Too Much Too Young
DR11 -6.12 dB -18.65 dB 2:46 13-Gangsters
DR12 -6.12 dB -19.73 dB 2:32 14-Little Bitch
DR14 -6.12 dB -22.41 dB 2:40 15-You're Wondering Now
--------------------------------------------------------------------------------
Number of tracks: 15
Official DR value: DR12
Samplerate: 96000 Hz
Channels: 2
Bits per sample: 24
Bitrate: 2516 kbps
Codec: FLAC
================================================================================
Правила, инструкции, FAQ!!!
Торрент  Добавлен [07 янв 2020, 21:35] Скачать торрент Магнет ссылка
Скачать торрент
[ Размер 18.74 КБ / Просмотров 17 ]

Статус
Проверен 
 
Размер  873.11 МБ
Приватный: Нет (DHT включён)
.torrent скачан  0
 


     Отправить личное сообщение
   
Страница 1 из 1
Показать сообщения за:  Поле сортировки  
Начать новую тему Ответить на тему


Сейчас этот форум просматривают: нет зарегистрированных пользователей и гости: 0


Вы не можете начинать темы
Вы не можете отвечать на сообщения
Вы не можете редактировать свои сообщения
Вы не можете удалять свои сообщения
Вы не можете добавлять вложения

Перейти:  
cron