Начать новую тему Ответить на тему
Статистика раздачи
Размер: 526.72 МБ | Добавлен: 26 мар 2019, 19:32 | Скачали: 1
Сидеров: 0  [0 байт/сек]    Личеров: 0  [0 байт/сек]
Пред. тема | След. тема 

Автор
Сообщение

СообщениеДобавлено: 26 мар 2019, 19:32 

Ответить с цитатой 

Mandy More
/ But that is me
Singer/Songwriter, Pop/Rock, Baroque Pop
UK / 2009 / 2×CD / 01:48:54
Sunbeam Records / Cat#SBR2CD5073
FLAC (*.flac) / tracks+.cue / lossless
from what.cd (the_cribs) / scans

1. But That Is Me
2. Listen Babe
3. For to Find the Daffodil
4. Fine
5. Harvey Muscletoe
6. Come With Me to Jesus
7. If Not by Fire
8. Alone in My Yellow
9. Matthew Brought Me Flowers
10. If I Smiled on Saturday
11. I'm Too Tall to Cry
12. God Only Knows
Non-LP 45s
13. San Francisco Sam
14. Coffee Cups
15. Every Mother's Child
16. Blue Seasons
17. Rose-Coloured Window
Код:
Exact Audio Copy V1.0 beta 3 from 29. August 2011
EAC extraction logfile from 21. March 2014, 11:47
Mandy More / But That Is Me [SBR2CD5073] (CD1)
Used drive  : HL-DT-STDVDRAM GSA-H44N   Adapter: 3  ID: 0
Read mode               : Secure
Utilize accurate stream : Yes
Defeat audio cache      : Yes
Make use of C2 pointers : No
Read offset correction                      : 667
Overread into Lead-In and Lead-Out          : No
Fill up missing offset samples with silence : Yes
Delete leading and trailing silent blocks   : No
Null samples used in CRC calculations       : Yes
Used interface                              : Native Win32 interface for Win NT & 2000
Gap handling                                : Appended to previous track
Used output format              : User Defined Encoder
Selected bitrate                : 1024 kBit/s
Quality                         : High
Add ID3 tag                     : No
Command line compressor         : C:\Program Files\Exact Audio Copy\CODECs\flac\flac.exe
Additional command line options : -8 -V -T "ARTIST=%artist%" -T "TITLE=%title%" -T "ALBUM=%albumtitle%" -T "DATE=%year%" -T "TRACKNUMBER=%tracknr%" -T "GENRE=%genre%" -T "PERFORMER=%albuminterpret%" -T "COMPOSER=%composer%" %haslyrics%--tag-from-file=LYRICS="%lyricsfile%"%haslyrics% -T "ALBUMARTIST=%albumartist%" -T "ALBUM ARTIST=%albumartist%" -T "DISCNUMBER=%cdnumber%" -T "TOTALDISCS=%totalcds%" -T "TOTALTRACKS=%numtracks%" -T "COMMENT=%comment%" %source% -o %dest%
TOC of the extracted CD
     Track |   Start  |  Length  | Start sector | End sector
    ---------------------------------------------------------
        1  |  0:00.00 |  4:01.61 |         0    |    18135
        2  |  4:01.61 |  3:36.57 |     18136    |    34392
        3  |  7:38.43 |  1:24.27 |     34393    |    40719
        4  |  9:02.70 |  1:39.49 |     40720    |    48193
        5  | 10:42.44 |  3:19.05 |     48194    |    63123
        6  | 14:01.49 |  3:57.16 |     63124    |    80914
        7  | 17:58.65 |  4:25.31 |     80915    |   100820
        8  | 22:24.21 |  2:58.71 |    100821    |   114241
        9  | 25:23.17 |  2:52.74 |    114242    |   127215
       10  | 28:16.16 |  3:00.29 |    127216    |   140744
       11  | 31:16.45 |  2:26.50 |    140745    |   151744
       12  | 33:43.20 |  3:43.53 |    151745    |   168522
       13  | 37:26.73 |  4:23.12 |    168523    |   188259
       14  | 41:50.10 |  2:07.42 |    188260    |   197826
       15  | 43:57.52 |  2:49.42 |    197827    |   210543
       16  | 46:47.19 |  3:15.20 |    210544    |   225188
       17  | 50:02.39 |  2:44.08 |    225189    |   237496
Track  1
     Filename E:\whatCD\Mandy More - But That Is Me [SBR2CD5073] (1972) {Flac}\CD1\01 Mandy More - But That Is Me.wav
     Pre-gap length  0:00:02.00
     Peak level 91.2 %
     Extraction speed 4.4 X
     Track quality 100.0 %
     Test CRC AA9E0F3E
     Copy CRC AA9E0F3E
     Track not present in AccurateRip database
     Copy OK
Track  2
     Filename E:\whatCD\Mandy More - But That Is Me [SBR2CD5073] (1972) {Flac}\CD1\02 Mandy More - Listen Babe.wav
     Pre-gap length  0:00:02.00
     Peak level 91.1 %
     Extraction speed 3.8 X
     Track quality 99.9 %
     Test CRC EA70A196
     Copy CRC EA70A196
     Track not present in AccurateRip database
     Copy OK
Track  3
     Filename E:\whatCD\Mandy More - But That Is Me [SBR2CD5073] (1972) {Flac}\CD1\03 Mandy More - For To Find Daffodil.wav
     Pre-gap length  0:00:02.00
     Peak level 77.5 %
     Extraction speed 4.0 X
     Track quality 100.0 %
     Test CRC 04B5954A
     Copy CRC 04B5954A
     Track not present in AccurateRip database
     Copy OK
Track  4
     Filename E:\whatCD\Mandy More - But That Is Me [SBR2CD5073] (1972) {Flac}\CD1\04 Mandy More - Fine.wav
     Pre-gap length  0:00:02.00
     Peak level 63.8 %
     Extraction speed 4.5 X
     Track quality 100.0 %
     Test CRC DB9953AB
     Copy CRC DB9953AB
     Track not present in AccurateRip database
     Copy OK
Track  5
     Filename E:\whatCD\Mandy More - But That Is Me [SBR2CD5073] (1972) {Flac}\CD1\05 Mandy More - Harvey Muscletoe.wav
     Pre-gap length  0:00:02.00
     Peak level 91.2 %
     Extraction speed 5.2 X
     Track quality 100.0 %
     Test CRC 5847C4AA
     Copy CRC 5847C4AA
     Track not present in AccurateRip database
     Copy OK
Track  6
     Filename E:\whatCD\Mandy More - But That Is Me [SBR2CD5073] (1972) {Flac}\CD1\06 Mandy More - Come With Me To Jesus.wav
     Pre-gap length  0:00:02.00
     Peak level 91.1 %
     Extraction speed 5.9 X
     Track quality 100.0 %
     Test CRC 9FF54103
     Copy CRC 9FF54103
     Track not present in AccurateRip database
     Copy OK
Track  7
     Filename E:\whatCD\Mandy More - But That Is Me [SBR2CD5073] (1972) {Flac}\CD1\07 Mandy More - If Not By Fire.wav
     Pre-gap length  0:00:02.00
     Peak level 85.3 %
     Extraction speed 6.4 X
     Track quality 100.0 %
     Test CRC 73E1ADA6
     Copy CRC 73E1ADA6
     Track not present in AccurateRip database
     Copy OK
Track  8
     Filename E:\whatCD\Mandy More - But That Is Me [SBR2CD5073] (1972) {Flac}\CD1\08 Mandy More - Alone In The Yellow.wav
     Pre-gap length  0:00:02.00
     Peak level 93.8 %
     Extraction speed 4.7 X
     Track quality 99.9 %
     Test CRC 4DB81B0B
     Copy CRC 4DB81B0B
     Track not present in AccurateRip database
     Copy OK
Track  9
     Filename E:\whatCD\Mandy More - But That Is Me [SBR2CD5073] (1972) {Flac}\CD1\09 Mandy More - Matthew Brought Me Flowers.wav
     Pre-gap length  0:00:02.00
     Peak level 91.1 %
     Extraction speed 4.9 X
     Track quality 99.9 %
     Test CRC 083ADDE1
     Copy CRC 083ADDE1
     Track not present in AccurateRip database
     Copy OK
Track 10
     Filename E:\whatCD\Mandy More - But That Is Me [SBR2CD5073] (1972) {Flac}\CD1\10 Mandy More - If I Smiled On Saturday.wav
     Pre-gap length  0:00:02.00
     Peak level 91.1 %
     Extraction speed 6.6 X
     Track quality 100.0 %
     Test CRC 48CD61DD
     Copy CRC 48CD61DD
     Track not present in AccurateRip database
     Copy OK
Track 11
     Filename E:\whatCD\Mandy More - But That Is Me [SBR2CD5073] (1972) {Flac}\CD1\11 Mandy More - I'm Too Tall To Cry.wav
     Pre-gap length  0:00:02.00
     Peak level 66.8 %
     Extraction speed 6.2 X
     Track quality 100.0 %
     Test CRC D2E82A51
     Copy CRC D2E82A51
     Track not present in AccurateRip database
     Copy OK
Track 12
     Filename E:\whatCD\Mandy More - But That Is Me [SBR2CD5073] (1972) {Flac}\CD1\12 Mandy More - God Only Knows.wav
     Pre-gap length  0:00:02.00
     Peak level 73.6 %
     Extraction speed 7.1 X
     Track quality 100.0 %
     Test CRC 13C062E8
     Copy CRC 13C062E8
     Track not present in AccurateRip database
     Copy OK
Track 13
     Filename E:\whatCD\Mandy More - But That Is Me [SBR2CD5073] (1972) {Flac}\CD1\13 Mandy More - San Fransisco Sam.wav
     Pre-gap length  0:00:04.00
     Peak level 79.2 %
     Extraction speed 7.5 X
     Track quality 100.0 %
     Test CRC 0FA0F41B
     Copy CRC 0FA0F41B
     Track not present in AccurateRip database
     Copy OK
Track 14
     Filename E:\whatCD\Mandy More - But That Is Me [SBR2CD5073] (1972) {Flac}\CD1\14 Mandy More - Coffee Cups.wav
     Pre-gap length  0:00:02.00
     Peak level 73.0 %
     Extraction speed 6.8 X
     Track quality 100.0 %
     Test CRC DE88F5AA
     Copy CRC DE88F5AA
     Track not present in AccurateRip database
     Copy OK
Track 15
     Filename E:\whatCD\Mandy More - But That Is Me [SBR2CD5073] (1972) {Flac}\CD1\15 Mandy More - Every Mother's Child.wav
     Pre-gap length  0:00:02.00
     Peak level 87.0 %
     Extraction speed 7.1 X
     Track quality 100.0 %
     Test CRC FA3E4184
     Copy CRC FA3E4184
     Track not present in AccurateRip database
     Copy OK
Track 16
     Filename E:\whatCD\Mandy More - But That Is Me [SBR2CD5073] (1972) {Flac}\CD1\16 Mandy More - Blue Seasons.wav
     Pre-gap length  0:00:02.00
     Peak level 82.2 %
     Extraction speed 7.8 X
     Track quality 100.0 %
     Test CRC 1D2B1D0F
     Copy CRC 1D2B1D0F
     Track not present in AccurateRip database
     Copy OK
Track 17
     Filename E:\whatCD\Mandy More - But That Is Me [SBR2CD5073] (1972) {Flac}\CD1\17 Mandy More - Rose-Coloured Windows.wav
     Pre-gap length  0:00:02.00
     Peak level 78.6 %
     Extraction speed 7.7 X
     Track quality 100.0 %
     Test CRC 1AE2A866
     Copy CRC 1AE2A866
     Track not present in AccurateRip database
     Copy OK
None of the tracks are present in the AccurateRip database
No errors occurred
End of status report
==== Log checksum FEF3F68FEC790C9CE6D4824A5B7330FD33697C4D012E659191D191B0369FEAA2 ====
Код:
REM GENRE Psychedelic/Folk/Rock
REM DATE 1972
REM DISCID E40C5E11
REM COMMENT "ExactAudioCopy v1.0b3"
PERFORMER "Mandy More"
TITLE "But That Is Me [SBR2CD5073] (CD1)"
FILE "01 Mandy More - But That Is Me.wav" WAVE
  TRACK 01 AUDIO
    TITLE "But That Is Me"
    PERFORMER "Mandy More"
    FLAGS DCP
    INDEX 01 00:00:00
  TRACK 02 AUDIO
    TITLE "Listen Babe"
    PERFORMER "Mandy More"
    FLAGS DCP
    INDEX 00 03:59:61
FILE "02 Mandy More - Listen Babe.wav" WAVE
    INDEX 01 00:00:00
  TRACK 03 AUDIO
    TITLE "For To Find Daffodil"
    PERFORMER "Mandy More"
    FLAGS DCP
    INDEX 00 03:34:57
FILE "03 Mandy More - For To Find Daffodil.wav" WAVE
    INDEX 01 00:00:00
  TRACK 04 AUDIO
    TITLE "Fine"
    PERFORMER "Mandy More"
    FLAGS DCP
    INDEX 00 01:22:27
FILE "04 Mandy More - Fine.wav" WAVE
    INDEX 01 00:00:00
  TRACK 05 AUDIO
    TITLE "Harvey Muscletoe"
    PERFORMER "Mandy More"
    FLAGS DCP
    INDEX 00 01:37:49
FILE "05 Mandy More - Harvey Muscletoe.wav" WAVE
    INDEX 01 00:00:00
  TRACK 06 AUDIO
    TITLE "Come With Me To Jesus"
    PERFORMER "Mandy More"
    FLAGS DCP
    INDEX 00 03:17:05
FILE "06 Mandy More - Come With Me To Jesus.wav" WAVE
    INDEX 01 00:00:00
  TRACK 07 AUDIO
    TITLE "If Not By Fire"
    PERFORMER "Mandy More"
    FLAGS DCP
    INDEX 00 03:55:16
FILE "07 Mandy More - If Not By Fire.wav" WAVE
    INDEX 01 00:00:00
  TRACK 08 AUDIO
    TITLE "Alone In The Yellow"
    PERFORMER "Mandy More"
    FLAGS DCP
    INDEX 00 04:23:31
FILE "08 Mandy More - Alone In The Yellow.wav" WAVE
    INDEX 01 00:00:00
  TRACK 09 AUDIO
    TITLE "Matthew Brought Me Flowers"
    PERFORMER "Mandy More"
    FLAGS DCP
    INDEX 00 02:56:71
FILE "09 Mandy More - Matthew Brought Me Flowers.wav" WAVE
    INDEX 01 00:00:00
  TRACK 10 AUDIO
    TITLE "If I Smiled On Saturday"
    PERFORMER "Mandy More"
    FLAGS DCP
    INDEX 00 02:50:74
FILE "10 Mandy More - If I Smiled On Saturday.wav" WAVE
    INDEX 01 00:00:00
  TRACK 11 AUDIO
    TITLE "I'm Too Tall To Cry"
    PERFORMER "Mandy More"
    FLAGS DCP
    INDEX 00 02:58:29
FILE "11 Mandy More - I'm Too Tall To Cry.wav" WAVE
    INDEX 01 00:00:00
  TRACK 12 AUDIO
    TITLE "God Only Knows"
    PERFORMER "Mandy More"
    FLAGS DCP
    INDEX 00 02:24:50
FILE "12 Mandy More - God Only Knows.wav" WAVE
    INDEX 01 00:00:00
  TRACK 13 AUDIO
    TITLE "San Fransisco Sam"
    PERFORMER "Mandy More"
    FLAGS DCP
    INDEX 00 03:39:53
FILE "13 Mandy More - San Fransisco Sam.wav" WAVE
    INDEX 01 00:00:00
  TRACK 14 AUDIO
    TITLE "Coffee Cups"
    PERFORMER "Mandy More"
    FLAGS DCP
    INDEX 00 04:21:12
FILE "14 Mandy More - Coffee Cups.wav" WAVE
    INDEX 01 00:00:00
  TRACK 15 AUDIO
    TITLE "Every Mother's Child"
    PERFORMER "Mandy More"
    FLAGS DCP
    INDEX 00 02:05:42
FILE "15 Mandy More - Every Mother's Child.wav" WAVE
    INDEX 01 00:00:00
  TRACK 16 AUDIO
    TITLE "Blue Seasons"
    PERFORMER "Mandy More"
    FLAGS DCP
    INDEX 00 02:47:42
FILE "16 Mandy More - Blue Seasons.wav" WAVE
    INDEX 01 00:00:00
  TRACK 17 AUDIO
    TITLE "Rose-Coloured Windows"
    PERFORMER "Mandy More"
    FLAGS DCP
    INDEX 00 03:13:20
FILE "17 Mandy More - Rose-Coloured Windows.wav" WAVE
    INDEX 01 00:00:00
1. The Camera Man (Demo)
2. Kind Girl (Demo)
3. But That Is Me (Alt. Take)
4. Listen Babe (Demo)
5. Harvey Muscletoe (Alt. Take)
6. Come With Me to Jesus (Alt. Take)
7. If Not by Fire (Demo)
8. If Not by Fire (Alt. Take 1)
9. If Not by Fire (Alt. Take 2)
10. Alone in My Yellow (Demo)
11. God Only Knows (Alt. Take)
12. Share the Seasons of My Song (Demo)
13. Give Me Your Time (Demo)
14. To Find You Blue (Demo)
15. I Promise I Love You (Demo)
16. San Francisco Sam (Demo)
17. Coffee Cups (Demo)
18. Will You Love Me Tomorrow? (Demo)
Код:
Exact Audio Copy V1.0 beta 3 from 29. August 2011
EAC extraction logfile from 21. March 2014, 12:24
Mandy More / But That Is Me [SBR2CD5073] (CD2)
Used drive  : HL-DT-STDVDRAM GSA-H44N   Adapter: 3  ID: 0
Read mode               : Secure
Utilize accurate stream : Yes
Defeat audio cache      : Yes
Make use of C2 pointers : No
Read offset correction                      : 667
Overread into Lead-In and Lead-Out          : No
Fill up missing offset samples with silence : Yes
Delete leading and trailing silent blocks   : No
Null samples used in CRC calculations       : Yes
Used interface                              : Native Win32 interface for Win NT & 2000
Gap handling                                : Appended to previous track
Used output format              : User Defined Encoder
Selected bitrate                : 1024 kBit/s
Quality                         : High
Add ID3 tag                     : No
Command line compressor         : C:\Program Files\Exact Audio Copy\CODECs\flac\flac.exe
Additional command line options : -8 -V -T "ARTIST=%artist%" -T "TITLE=%title%" -T "ALBUM=%albumtitle%" -T "DATE=%year%" -T "TRACKNUMBER=%tracknr%" -T "GENRE=%genre%" -T "PERFORMER=%albuminterpret%" -T "COMPOSER=%composer%" %haslyrics%--tag-from-file=LYRICS="%lyricsfile%"%haslyrics% -T "ALBUMARTIST=%albumartist%" -T "ALBUM ARTIST=%albumartist%" -T "DISCNUMBER=%cdnumber%" -T "TOTALDISCS=%totalcds%" -T "TOTALTRACKS=%numtracks%" -T "COMMENT=%comment%" %source% -o %dest%
TOC of the extracted CD
     Track |   Start  |  Length  | Start sector | End sector
    ---------------------------------------------------------
        1  |  0:00.00 |  2:24.17 |         0    |    10816
        2  |  2:24.17 |  2:43.43 |     10817    |    23084
        3  |  5:07.60 |  3:50.11 |     23085    |    40345
        4  |  8:57.71 |  2:28.56 |     40346    |    51501
        5  | 11:26.52 |  3:16.73 |     51502    |    66274
        6  | 14:43.50 |  3:27.37 |     66275    |    81836
        7  | 18:11.12 |  3:11.18 |     81837    |    96179
        8  | 21:22.30 |  4:35.17 |     96180    |   116821
        9  | 25:57.47 |  3:55.10 |    116822    |   134456
       10  | 29:52.57 |  2:51.58 |    134457    |   147339
       11  | 32:44.40 |  3:58.04 |    147340    |   165193
       12  | 36:42.44 |  3:53.60 |    165194    |   182728
       13  | 40:36.29 |  2:17.62 |    182729    |   193065
       14  | 42:54.16 |  2:53.12 |    193066    |   206052
       15  | 45:47.28 |  1:48.62 |    206053    |   214214
       16  | 47:36.15 |  3:41.23 |    214215    |   230812
       17  | 51:17.38 |  2:17.21 |    230813    |   241108
       18  | 53:34.59 |  2:33.42 |    241109    |   252625
Track  1
     Filename E:\whatCD\Mandy More - But That Is Me [SBR2CD5073] (1972) {Flac}\CD2\01 Mandy More - The Camera Man (Demo).wav
     Pre-gap length  0:00:02.00
     Peak level 63.9 %
     Extraction speed 2.5 X
     Track quality 100.0 %
     Test CRC 1A1A2848
     Copy CRC 1A1A2848
     Track not present in AccurateRip database
     Copy OK
Track  2
     Filename E:\whatCD\Mandy More - But That Is Me [SBR2CD5073] (1972) {Flac}\CD2\02 Mandy More - Kind Girl (Demo).wav
     Pre-gap length  0:00:02.00
     Peak level 95.7 %
     Extraction speed 2.6 X
     Track quality 100.0 %
     Test CRC 5107B9BB
     Copy CRC 5107B9BB
     Track not present in AccurateRip database
     Copy OK
Track  3
     Filename E:\whatCD\Mandy More - But That Is Me [SBR2CD5073] (1972) {Flac}\CD2\03 Mandy More - But That Is Me (Alt. Take).wav
     Pre-gap length  0:00:02.00
     Peak level 90.9 %
     Extraction speed 3.1 X
     Track quality 100.0 %
     Test CRC 17DC8550
     Copy CRC 17DC8550
     Track not present in AccurateRip database
     Copy OK
Track  4
     Filename E:\whatCD\Mandy More - But That Is Me [SBR2CD5073] (1972) {Flac}\CD2\04 Mandy More - Listen Babe (Demo).wav
     Pre-gap length  0:00:02.00
     Peak level 74.1 %
     Extraction speed 2.5 X
     Track quality 99.9 %
     Test CRC 6550A392
     Copy CRC 6550A392
     Track not present in AccurateRip database
     Copy OK
Track  5
     Filename E:\whatCD\Mandy More - But That Is Me [SBR2CD5073] (1972) {Flac}\CD2\05 Mandy More - Harvey Muscletoe (Alt. Take).wav
     Pre-gap length  0:00:02.00
     Peak level 87.0 %
     Extraction speed 3.4 X
     Track quality 100.0 %
     Test CRC 70D92E44
     Copy CRC 70D92E44
     Track not present in AccurateRip database
     Copy OK
Track  6
     Filename E:\whatCD\Mandy More - But That Is Me [SBR2CD5073] (1972) {Flac}\CD2\06 Mandy More - Come With Me To Jesus (Alt. Take).wav
     Pre-gap length  0:00:02.00
     Peak level 91.1 %
     Extraction speed 3.1 X
     Track quality 99.9 %
     Test CRC F6AB5EA2
     Copy CRC F6AB5EA2
     Track not present in AccurateRip database
     Copy OK
Track  7
     Filename E:\whatCD\Mandy More - But That Is Me [SBR2CD5073] (1972) {Flac}\CD2\07 Mandy More - If Noy By Fire (Demo).wav
     Pre-gap length  0:00:02.00
     Peak level 70.7 %
     Extraction speed 3.2 X
     Track quality 99.9 %
     Test CRC DF860A24
     Copy CRC DF860A24
     Track not present in AccurateRip database
     Copy OK
Track  8
     Filename E:\whatCD\Mandy More - But That Is Me [SBR2CD5073] (1972) {Flac}\CD2\08 Mandy More - If Not By Fire (Alt. Take 1).wav
     Pre-gap length  0:00:02.00
     Peak level 88.3 %
     Extraction speed 3.6 X
     Track quality 99.9 %
     Test CRC 07D28371
     Copy CRC 07D28371
     Track not present in AccurateRip database
     Copy OK
Track  9
     Filename E:\whatCD\Mandy More - But That Is Me [SBR2CD5073] (1972) {Flac}\CD2\09 Mandy More - If Not By Fire (Alt. Take 2).wav
     Pre-gap length  0:00:02.00
     Peak level 87.1 %
     Extraction speed 4.3 X
     Track quality 100.0 %
     Test CRC 11D1B35C
     Copy CRC 11D1B35C
     Track not present in AccurateRip database
     Copy OK
Track 10
     Filename E:\whatCD\Mandy More - But That Is Me [SBR2CD5073] (1972) {Flac}\CD2\10 Mandy More - Alone In My Yellow (Demo).wav
     Pre-gap length  0:00:02.00
     Peak level 73.7 %
     Extraction speed 4.2 X
     Track quality 100.0 %
     Test CRC 839F6362
     Copy CRC 839F6362
     Track not present in AccurateRip database
     Copy OK
Track 11
     Filename E:\whatCD\Mandy More - But That Is Me [SBR2CD5073] (1972) {Flac}\CD2\11 Mandy More - God Only Knows (Alt. Take).wav
     Pre-gap length  0:00:02.00
     Peak level 91.1 %
     Extraction speed 3.9 X
     Track quality 99.9 %
     Test CRC B4F375E8
     Copy CRC B4F375E8
     Track not present in AccurateRip database
     Copy OK
Track 12
     Filename E:\whatCD\Mandy More - But That Is Me [SBR2CD5073] (1972) {Flac}\CD2\12 Mandy More - Share The Secrets Of My Song (Demo).wav
     Pre-gap length  0:00:02.00
     Peak level 61.3 %
     Extraction speed 4.7 X
     Track quality 100.0 %
     Test CRC 52B2589A
     Copy CRC 52B2589A
     Track not present in AccurateRip database
     Copy OK
Track 13
     Filename E:\whatCD\Mandy More - But That Is Me [SBR2CD5073] (1972) {Flac}\CD2\13 Mandy More - Give Me Your Time (Demo).wav
     Pre-gap length  0:00:02.00
     Peak level 76.9 %
     Extraction speed 4.4 X
     Track quality 100.0 %
     Test CRC 2A774566
     Copy CRC 2A774566
     Track not present in AccurateRip database
     Copy OK
Track 14
     Filename E:\whatCD\Mandy More - But That Is Me [SBR2CD5073] (1972) {Flac}\CD2\14 Mandy More - To Find You Blue (Demo).wav
     Pre-gap length  0:00:02.00
     Peak level 69.5 %
     Extraction speed 4.5 X
     Track quality 100.0 %
     Test CRC A65C2B9B
     Copy CRC A65C2B9B
     Track not present in AccurateRip database
     Copy OK
Track 15
     Filename E:\whatCD\Mandy More - But That Is Me [SBR2CD5073] (1972) {Flac}\CD2\15 Mandy More - I Promise I Love You (Demo).wav
     Pre-gap length  0:00:02.00
     Peak level 73.2 %
     Extraction speed 4.1 X
     Track quality 100.0 %
     Test CRC F2A62A46
     Copy CRC F2A62A46
     Track not present in AccurateRip database
     Copy OK
Track 16
     Filename E:\whatCD\Mandy More - But That Is Me [SBR2CD5073] (1972) {Flac}\CD2\16 Mandy More - San Fransisco Sam (Demo).wav
     Pre-gap length  0:00:02.00
     Peak level 80.3 %
     Extraction speed 4.9 X
     Track quality 100.0 %
     Test CRC 8905CC83
     Copy CRC 8905CC83
     Track not present in AccurateRip database
     Copy OK
Track 17
     Filename E:\whatCD\Mandy More - But That Is Me [SBR2CD5073] (1972) {Flac}\CD2\17 Mandy More - Coffee Cup (Demo).wav
     Pre-gap length  0:00:02.00
     Peak level 57.7 %
     Extraction speed 4.7 X
     Track quality 100.0 %
     Test CRC C5EF1B58
     Copy CRC C5EF1B58
     Track not present in AccurateRip database
     Copy OK
Track 18
     Filename E:\whatCD\Mandy More - But That Is Me [SBR2CD5073] (1972) {Flac}\CD2\18 Mandy More - Will You Love Me Tomorrow (Demo).wav
     Pre-gap length  0:00:02.00
     Peak level 78.3 %
     Extraction speed 4.8 X
     Track quality 100.0 %
     Test CRC 0FB0EF62
     Copy CRC 0FB0EF62
     Track not present in AccurateRip database
     Copy OK
None of the tracks are present in the AccurateRip database
No errors occurred
End of status report
==== Log checksum 7529F8E82E8427C611E3B8EADECA8B88A9B168FAE5BDF836EB4B9F8CD05EDBD9 ====
Код:
REM GENRE Psychedelic/Folk/Rock
REM DATE 1972
REM DISCID 2A0D2812
REM COMMENT "ExactAudioCopy v1.0b3"
PERFORMER "Mandy More"
TITLE "But That Is Me [SBR2CD5073] (CD2)"
FILE "01 Mandy More - The Camera Man (Demo).wav" WAVE
  TRACK 01 AUDIO
    TITLE "The Camera Man (Demo)"
    PERFORMER "Mandy More"
    INDEX 01 00:00:00
  TRACK 02 AUDIO
    TITLE "Kind Girl (Demo)"
    PERFORMER "Mandy More"
    INDEX 00 02:22:17
FILE "02 Mandy More - Kind Girl (Demo).wav" WAVE
    INDEX 01 00:00:00
  TRACK 03 AUDIO
    TITLE "But That Is Me (Alt. Take)"
    PERFORMER "Mandy More"
    INDEX 00 02:41:43
FILE "03 Mandy More - But That Is Me (Alt. Take).wav" WAVE
    INDEX 01 00:00:00
  TRACK 04 AUDIO
    TITLE "Listen Babe (Demo)"
    PERFORMER "Mandy More"
    INDEX 00 03:48:11
FILE "04 Mandy More - Listen Babe (Demo).wav" WAVE
    INDEX 01 00:00:00
  TRACK 05 AUDIO
    TITLE "Harvey Muscletoe (Alt. Take)"
    PERFORMER "Mandy More"
    INDEX 00 02:26:56
FILE "05 Mandy More - Harvey Muscletoe (Alt. Take).wav" WAVE
    INDEX 01 00:00:00
  TRACK 06 AUDIO
    TITLE "Come With Me To Jesus (Alt. Take)"
    PERFORMER "Mandy More"
    INDEX 00 03:14:73
FILE "06 Mandy More - Come With Me To Jesus (Alt. Take).wav" WAVE
    INDEX 01 00:00:00
  TRACK 07 AUDIO
    TITLE "If Noy By Fire (Demo)"
    PERFORMER "Mandy More"
    INDEX 00 03:25:37
FILE "07 Mandy More - If Noy By Fire (Demo).wav" WAVE
    INDEX 01 00:00:00
  TRACK 08 AUDIO
    TITLE "If Not By Fire (Alt. Take 1)"
    PERFORMER "Mandy More"
    INDEX 00 03:09:18
FILE "08 Mandy More - If Not By Fire (Alt. Take 1).wav" WAVE
    INDEX 01 00:00:00
  TRACK 09 AUDIO
    TITLE "If Not By Fire (Alt. Take 2)"
    PERFORMER "Mandy More"
    INDEX 00 04:33:17
FILE "09 Mandy More - If Not By Fire (Alt. Take 2).wav" WAVE
    INDEX 01 00:00:00
  TRACK 10 AUDIO
    TITLE "Alone In My Yellow (Demo)"
    PERFORMER "Mandy More"
    INDEX 00 03:53:10
FILE "10 Mandy More - Alone In My Yellow (Demo).wav" WAVE
    INDEX 01 00:00:00
  TRACK 11 AUDIO
    TITLE "God Only Knows (Alt. Take)"
    PERFORMER "Mandy More"
    INDEX 00 02:49:58
FILE "11 Mandy More - God Only Knows (Alt. Take).wav" WAVE
    INDEX 01 00:00:00
  TRACK 12 AUDIO
    TITLE "Share The Secrets Of My Song (Demo)"
    PERFORMER "Mandy More"
    INDEX 00 03:56:04
FILE "12 Mandy More - Share The Secrets Of My Song (Demo).wav" WAVE
    INDEX 01 00:00:00
  TRACK 13 AUDIO
    TITLE "Give Me Your Time (Demo)"
    PERFORMER "Mandy More"
    INDEX 00 03:51:60
FILE "13 Mandy More - Give Me Your Time (Demo).wav" WAVE
    INDEX 01 00:00:00
  TRACK 14 AUDIO
    TITLE "To Find You Blue (Demo)"
    PERFORMER "Mandy More"
    INDEX 00 02:15:62
FILE "14 Mandy More - To Find You Blue (Demo).wav" WAVE
    INDEX 01 00:00:00
  TRACK 15 AUDIO
    TITLE "I Promise I Love You (Demo)"
    PERFORMER "Mandy More"
    INDEX 00 02:51:12
FILE "15 Mandy More - I Promise I Love You (Demo).wav" WAVE
    INDEX 01 00:00:00
  TRACK 16 AUDIO
    TITLE "San Fransisco Sam (Demo)"
    PERFORMER "Mandy More"
    INDEX 00 01:46:62
FILE "16 Mandy More - San Fransisco Sam (Demo).wav" WAVE
    INDEX 01 00:00:00
  TRACK 17 AUDIO
    TITLE "Coffee Cup (Demo)"
    PERFORMER "Mandy More"
    INDEX 00 03:39:23
FILE "17 Mandy More - Coffee Cup (Demo).wav" WAVE
    INDEX 01 00:00:00
  TRACK 18 AUDIO
    TITLE "Will You Love Me Tomorrow? (Demo)"
    PERFORMER "Mandy More"
    INDEX 00 02:15:21
FILE "18 Mandy More - Will You Love Me Tomorrow (Demo).wav" WAVE
    INDEX 01 00:00:00
Правила, инструкции, FAQ!!!
Торрент  Добавлен [26 мар 2019, 19:32] Скачать торрент Магнет ссылка
Скачать торрент
[ Размер 16.37 КБ / Просмотров 10 ]

Статус
Проверен 
 
Размер  526.72 МБ
Приватный: Нет (DHT включён)
.torrent скачан  1
 


     Отправить личное сообщение
   
Страница 1 из 1
Показать сообщения за:  Поле сортировки  
Начать новую тему Ответить на тему


Сейчас этот форум просматривают: нет зарегистрированных пользователей и гости: 0


Вы не можете начинать темы
Вы не можете отвечать на сообщения
Вы не можете редактировать свои сообщения
Вы не можете удалять свои сообщения
Вы не можете добавлять вложения

Перейти:  
cron