Начать новую тему Ответить на тему
Статистика раздачи
Размер: 252.43 МБ | Добавлен: 26 мар 2019, 20:35 | Скачали: 0
Сидеров: 0  [0 байт/сек]    Личеров: 0  [0 байт/сек]
Пред. тема | След. тема 

Автор
Сообщение

СообщениеДобавлено: 26 мар 2019, 20:35 

Ответить с цитатой 

Joe Henry / Shuffletown
Жанр: Singer-Songwriter, Folk-Rock
Носитель: CD
Страна-производитель диска (релиза): USA
Год издания: 1990
Издатель (лейбл): A&M Records
Номер по каталогу: 7502153152
Страна исполнителя (группы): USA
Аудиокодек: FLAC (*.flac)
Тип рипа: tracks+.cue
Битрейт аудио: lossless
Продолжительность: 00:41:22
Источник (релизер): own collection
Наличие сканов в содержимом раздачи: да
Код:
01. [b]Helena by the Avenue[/b]  04:05
02. [b]Shuffletown[/b]    05:28
03. [b]Date for Church[/b]   03:46
04. [b]John Hanging[/b]    02:39
05. [b]Spent It All[/b]    03:20
06. [b]Easter[/b]    02:50
07. [b]Land[/b]     04:02
08. [b]Johnny the Conqueror[/b]  02:20
09. [b]Drowning in the River Half Laughing[/b] 03:21
10. [b]Charlevoix[/b]    03:05
11. [b]Make the World Go Away[/b]  03:15
12. [b]Ben Turpin in the Army[/b]  03:11
All songs written by Joe Henry, except “Make the World Go Away,” written by [b]Hank Cochran[/b]
Код:
Exact Audio Copy V1.1 from 23. June 2015
EAC extraction logfile from 18. November 2017, 14:54
Joe Henry / Shuffletown
Used drive  : ASUS    BW-12D1S-U   Adapter: 1  ID: 1
Read mode               : Secure
Utilize accurate stream : Yes
Defeat audio cache      : Yes
Make use of C2 pointers : No
Read offset correction                      : 667
Overread into Lead-In and Lead-Out          : No
Fill up missing offset samples with silence : Yes
Delete leading and trailing silent blocks   : No
Null samples used in CRC calculations       : Yes
Used interface                              : Native Win32 interface for Win NT & 2000
Gap handling                                : Appended to previous track
Used output format              : User Defined Encoder
Selected bitrate                : 1024 kBit/s
Quality                         : High
Add ID3 tag                     : No
Command line compressor         : C:\Program Files (x86)\Exact Audio Copy\FLAC\FLAC.EXE
Additional command line options : -6 -V -T "ARTIST=%artist%" -T "TITLE=%title%" -T "ALBUM=%albumtitle%" -T "DATE=%year%" -T "TRACKNUMBER=%tracknr%" -T "GENRE=%genre%" -T "COMMENT=%comment%" -T "BAND=%albuminterpret%" -T "ALBUMARTIST=%albuminterpret%" -T "COMPOSER=%composer%" %haslyrics%--tag-from-file=LYRICS="%lyricsfile%"%haslyrics% -T "DISCNUMBER=%cdnumber%" -T "TOTALDISCS=%totalcds%" -T "TOTALTRACKS=%numtracks%" %hascover%--picture="%coverfile%"%hascover% %source% -o %dest%
TOC of the extracted CD
     Track |   Start  |  Length  | Start sector | End sector
    ---------------------------------------------------------
        1  |  0:00.00 |  4:05.37 |         0    |    18411
        2  |  4:05.37 |  5:27.55 |     18412    |    42991
        3  |  9:33.17 |  3:46.33 |     42992    |    59974
        4  | 13:19.50 |  2:39.10 |     59975    |    71909
        5  | 15:58.60 |  3:20.32 |     71910    |    86941
        6  | 19:19.17 |  2:50.35 |     86942    |    99726
        7  | 22:09.52 |  4:01.48 |     99727    |   117849
        8  | 26:11.25 |  2:20.15 |    117850    |   128364
        9  | 28:31.40 |  3:20.52 |    128365    |   143416
       10  | 31:52.17 |  3:04.63 |    143417    |   157279
       11  | 34:57.05 |  3:14.65 |    157280    |   171894
       12  | 38:11.70 |  3:10.50 |    171895    |   186194
Track  1
     Filename C:\Users\Alexandre\Downloads\Torrents of Autumn\Henry, Joe [1990] Shuffletown\01. Helena by the Avenue.wav
     Pre-gap length  0:00:02.00
     Peak level 86.0 %
     Extraction speed 4.4 X
     Track quality 100.0 %
     Test CRC E82E85F9
     Copy CRC E82E85F9
     Accurately ripped (confidence 21)  [F87F2A4A]  (AR v2)
     Copy OK
Track  2
     Filename C:\Users\Alexandre\Downloads\Torrents of Autumn\Henry, Joe [1990] Shuffletown\02. Shuffletown.wav
     Pre-gap length  0:00:00.47
     Peak level 99.5 %
     Extraction speed 5.1 X
     Track quality 100.0 %
     Test CRC BB3BE239
     Copy CRC BB3BE239
     Accurately ripped (confidence 21)  [A2CE806C]  (AR v2)
     Copy OK
Track  3
     Filename C:\Users\Alexandre\Downloads\Torrents of Autumn\Henry, Joe [1990] Shuffletown\03. Date for Church.wav
     Pre-gap length  0:00:00.27
     Peak level 75.3 %
     Extraction speed 5.2 X
     Track quality 100.0 %
     Test CRC E99D85BF
     Copy CRC E99D85BF
     Accurately ripped (confidence 21)  [3EE65AC5]  (AR v2)
     Copy OK
Track  4
     Filename C:\Users\Alexandre\Downloads\Torrents of Autumn\Henry, Joe [1990] Shuffletown\04. John Hanging.wav
     Pre-gap length  0:00:01.03
     Peak level 80.1 %
     Extraction speed 5.3 X
     Track quality 100.0 %
     Test CRC DDCC97F7
     Copy CRC DDCC97F7
     Accurately ripped (confidence 21)  [C8BFF79F]  (AR v2)
     Copy OK
Track  5
     Filename C:\Users\Alexandre\Downloads\Torrents of Autumn\Henry, Joe [1990] Shuffletown\05. Spent It All.wav
     Pre-gap length  0:00:01.50
     Peak level 93.2 %
     Extraction speed 5.7 X
     Track quality 100.0 %
     Test CRC 03BFE4DF
     Copy CRC 03BFE4DF
     Accurately ripped (confidence 21)  [D7C04F9F]  (AR v2)
     Copy OK
Track  6
     Filename C:\Users\Alexandre\Downloads\Torrents of Autumn\Henry, Joe [1990] Shuffletown\06. Easter.wav
     Pre-gap length  0:00:02.05
     Peak level 86.5 %
     Extraction speed 5.8 X
     Track quality 100.0 %
     Test CRC 6B43A30A
     Copy CRC 6B43A30A
     Accurately ripped (confidence 21)  [FB6245C6]  (AR v2)
     Copy OK
Track  7
     Filename C:\Users\Alexandre\Downloads\Torrents of Autumn\Henry, Joe [1990] Shuffletown\07. Land.wav
     Pre-gap length  0:00:01.35
     Peak level 81.7 %
     Extraction speed 6.3 X
     Track quality 100.0 %
     Test CRC A225F0BE
     Copy CRC A225F0BE
     Accurately ripped (confidence 21)  [D27AE3CC]  (AR v2)
     Copy OK
Track  8
     Filename C:\Users\Alexandre\Downloads\Torrents of Autumn\Henry, Joe [1990] Shuffletown\08. Johnny the Conqueror.wav
     Pre-gap length  0:00:00.50
     Peak level 81.5 %
     Extraction speed 5.9 X
     Track quality 100.0 %
     Test CRC FF902FBC
     Copy CRC FF902FBC
     Accurately ripped (confidence 21)  [B32D2AAA]  (AR v2)
     Copy OK
Track  9
     Filename C:\Users\Alexandre\Downloads\Torrents of Autumn\Henry, Joe [1990] Shuffletown\09. Drowning in the River Half Laughing.wav
     Pre-gap length  0:00:02.00
     Peak level 72.5 %
     Extraction speed 6.4 X
     Track quality 100.0 %
     Test CRC 2666C56A
     Copy CRC 2666C56A
     Accurately ripped (confidence 21)  [008F2861]  (AR v2)
     Copy OK
Track 10
     Filename C:\Users\Alexandre\Downloads\Torrents of Autumn\Henry, Joe [1990] Shuffletown\10. Charlevoix.wav
     Pre-gap length  0:00:01.70
     Peak level 100.0 %
     Extraction speed 6.3 X
     Track quality 100.0 %
     Test CRC B3DBD6D7
     Copy CRC B3DBD6D7
     Accurately ripped (confidence 21)  [3215EC91]  (AR v2)
     Copy OK
Track 11
     Filename C:\Users\Alexandre\Downloads\Torrents of Autumn\Henry, Joe [1990] Shuffletown\11. Make the World Go Away.wav
     Pre-gap length  0:00:01.23
     Peak level 71.8 %
     Extraction speed 6.0 X
     Track quality 99.9 %
     Test CRC 4170C54C
     Copy CRC 4170C54C
     Accurately ripped (confidence 21)  [06D4C49B]  (AR v2)
     Copy OK
Track 12
     Filename C:\Users\Alexandre\Downloads\Torrents of Autumn\Henry, Joe [1990] Shuffletown\12. Ben Turpin in the Army.wav
     Pre-gap length  0:00:02.03
     Peak level 77.6 %
     Extraction speed 7.0 X
     Track quality 100.0 %
     Test CRC DD219727
     Copy CRC DD219727
     Accurately ripped (confidence 21)  [F2121EA7]  (AR v2)
     Copy OK
All tracks accurately ripped
No errors occurred
End of status report
---- CUETools DB Plugin V2.1.6
[CTDB TOCID: 9p20szaVnIPfPvBQFu3VvcqlXf0-] found
Submit result: 9p20szaVnIPfPvBQFu3VvcqlXf0- has been confirmed
Track | CTDB Status
  1   | (21/21) Accurately ripped
  2   | (21/21) Accurately ripped
  3   | (21/21) Accurately ripped
  4   | (21/21) Accurately ripped
  5   | (21/21) Accurately ripped
  6   | (21/21) Accurately ripped
  7   | (21/21) Accurately ripped
  8   | (21/21) Accurately ripped
  9   | (21/21) Accurately ripped
 10   | (21/21) Accurately ripped
 11   | (21/21) Accurately ripped
 12   | (21/21) Accurately ripped
Код:
REM GENRE Rock
REM DATE 1990
REM DISCID 9809B20C
REM COMMENT "ExactAudioCopy v1.1"
PERFORMER "Joe Henry"
TITLE "Shuffletown"
FILE "01. Helena by the Avenue.wav" WAVE
  TRACK 01 AUDIO
    TITLE "Helena by the Avenue"
    PERFORMER "Joe Henry"
    INDEX 01 00:00:00
  TRACK 02 AUDIO
    TITLE "Shuffletown"
    PERFORMER "Joe Henry"
    INDEX 00 04:04:65
FILE "02. Shuffletown.wav" WAVE
    INDEX 01 00:00:00
  TRACK 03 AUDIO
    TITLE "Date for Church"
    PERFORMER "Joe Henry"
    INDEX 00 05:27:28
FILE "03. Date for Church.wav" WAVE
    INDEX 01 00:00:00
  TRACK 04 AUDIO
    TITLE "John Hanging"
    PERFORMER "Joe Henry"
    INDEX 00 03:45:30
FILE "04. John Hanging.wav" WAVE
    INDEX 01 00:00:00
  TRACK 05 AUDIO
    TITLE "Spent It All"
    PERFORMER "Joe Henry"
    INDEX 00 02:37:35
FILE "05. Spent It All.wav" WAVE
    INDEX 01 00:00:00
  TRACK 06 AUDIO
    TITLE "Easter"
    PERFORMER "Joe Henry"
    INDEX 00 03:18:27
FILE "06. Easter.wav" WAVE
    INDEX 01 00:00:00
  TRACK 07 AUDIO
    TITLE "Land"
    PERFORMER "Joe Henry"
    INDEX 00 02:49:00
FILE "07. Land.wav" WAVE
    INDEX 01 00:00:00
  TRACK 08 AUDIO
    TITLE "Johnny the Conqueror"
    PERFORMER "Joe Henry"
    INDEX 00 04:00:73
FILE "08. Johnny the Conqueror.wav" WAVE
    INDEX 01 00:00:00
  TRACK 09 AUDIO
    TITLE "Drowning in the River Half Laughing"
    PERFORMER "Joe Henry"
    INDEX 00 02:18:15
FILE "09. Drowning in the River Half Laughing.wav" WAVE
    INDEX 01 00:00:00
  TRACK 10 AUDIO
    TITLE "Charlevoix"
    PERFORMER "Joe Henry"
    INDEX 00 03:18:57
FILE "10. Charlevoix.wav" WAVE
    INDEX 01 00:00:00
  TRACK 11 AUDIO
    TITLE "Make the World Go Away"
    PERFORMER "Joe Henry"
    INDEX 00 03:03:40
FILE "11. Make the World Go Away.wav" WAVE
    INDEX 01 00:00:00
  TRACK 12 AUDIO
    TITLE "Ben Turpin in the Army"
    PERFORMER "Joe Henry"
    INDEX 00 03:12:62
FILE "12. Ben Turpin in the Army.wav" WAVE
    INDEX 01 00:00:00
A gifted songwriter and vocalist whose intimate, richly detailed songs have been shaped by his eclectic musical world view encompassing rock, folk, country, soul, and jazz influences, Joe Henry is also a well-respected producer who has helped a wide range of artists refine their songs in the studio.
Henry was born on December 2, 1960 in Charlotte, North Carolina. He grew up in the Detroit area of Michigan, attended the University of Michigan, and subsequently relocated to New York City in 1985. After his little-heard 1986 debut album, Talk of Heaven, Henry landed a deal with A&M Records, who released the 1989 album Murder of Crows, which was produced by Anton Fier and featured Mick Taylor on guitar. In 1990, Henry settled in Los Angeles with his wife and son, and moved away from the rock & roll edges of Murder of Crows to the acoustic moods of Shuffletown, produced by T-Bone Burnett, before moving to Mammoth Records and shifting into the country- and folk-influenced territory of Short Man’s Room (1992) and Kindness of the World (1993), a pair of albums in which he was backed by the acclaimed alt-country outfit the Jayhawks. The latter two albums earned him an excellent reputation among fans of alternative rock and country as a superb singer and songwriter. He followed Kindness with the five-song EP Fireman’s Wedding a year later.
On 1996’s Trampoline, Henry veered in an edgier, more rhythm-oriented direction. While he still employed acoustic instruments and even a pedal-steel guitar on several songs, Trampoline (much of which Henry recorded at a studio he set up in his garage) was more clearly defined by drum loops, loud electric guitars (some played by Page Hamilton of Helmet), mysterious voices, and curious sonic textures. Fuse (mixed with the aid of Daniel Lanois and T-Bone Burnett) followed in 1999, which included contributions from Jakob Dylan and the Dirty Dozen Brass Band. Two years later, Henry returned with the literate and enigmatic stunner Scar, which included sax work from free jazz pioneer Ornette Coleman; the album marked the end of his tenure with Mammoth. He opted for a deal with Epitaph’s Anti subsidiary and entered the studio in December 2002 to record his ninth album, Tiny Voices, his most intricate album to date. A second album on Anti, Civilians, followed in 2007, while a third from the label, Blood from Stars, appeared at the end of the summer in 2009.
Since 2000, Henry has been producing sessions for other artists, including Aimee Mann, Solomon Burke, John Doe, and Bettye LaVette, and after Blood from Stars, Henry was wildly busy as a producer for the next two years, helming projects from Allen Toussaint, Salif Keita, Carolina Chocolate Drops, Ramblin' Jack Elliott, Mose Allison, Hugh Laurie, Over the Rhine, Lisa Hannigan, and Meshell Ndegeocello, as well as participating in sessions for others. He finally got around to recording again in 2011, with an eclectic collection of acoustic performances entitled Reverie, which was released on Anti in October of 2011; another set of striking low-key songs, Invisible Hour, followed in 2014, released on the Work Song label. In the spring of 2016, Henry teamed up with British songwriter and activist Billy Bragg to make an album of folk songs inspired by the legacy of the American railroad system. Recorded with a portable recording rig while Henry and Bragg rode an Amtrak line from Chicago to Los Angeles, Shine a Light: Field Recordings from the Great American Railroad was released in September 2016, and followed by a joint concert tour. Henry’s next project was 2017’s Thrum, an album the songwriter described as being influenced by several of his favorite poets—among them Rainer Maria Rilke, Walt Whitman, Arthur Rimbaud, and Rumi—as well as his reactions to the election of Donald Trump. (Kurt Wolff, AllMusic)
The instruments speak with such straightforward eloquence that they underscore the frequent absence of that same quality in Henry’s lyrics. Too often, compelling setups (for example, “And if the morning leaves you/With just the afternoon/In the darkness of your room,” from “Helena by the Avenue”) are negated by maddeningly obscure payoffs (“Helena, you will find/The avenues are most unkind”). At times, Henry’s predilection for spinning Dylanesque verbal webs opens up into vivid imagery, as in the lilting “Charlevoix” and the metaphoric sea chantey “Land.” But in general, Henry’s consistently lovely melodies and parched, melancholy delivery are best served by literal, anecdotal songs like the sad, subtly sinister “Date for Church,” which describes with poetic incisiveness a courtship conducted from a distance and without the awareness, much less the consent, of the object of the singer’s affections.
Shuffletown[ ultimately is a tease, drawing the listener in with its evocativeness, only to retreat into introspective closure. Clearly, Henry has found the ideal sound with which to put across his highly personal music; perhaps next time he’ll make expressive use of his gift for language rather than hiding behind it. (Bud Scoppa, Rolling Stone, 592)
Joe Henry: vocals, acoustic and resonator guitar
David Mansfield: violin, mandolin, and resonator guitar
Cecil McBee: upright bass
Phil Kelly: piano and organ
Michael Blair: percussion, vibraphone, and vocals
T-Bone Burnett: resonator guitar, snare, and brushes
Charlie Giordano: accordion and organ
Don Cherry: trumpet and Jews’ harp
Правила, инструкции, FAQ!!!
Торрент  Добавлен [26 мар 2019, 20:35] Скачать торрент Магнет ссылка
Скачать торрент
[ Размер 21.47 КБ / Просмотров 4 ]

Статус
Проверен 
 
Размер  252.43 МБ
Приватный: Нет (DHT включён)
.torrent скачан  0
 


     Отправить личное сообщение
   
Страница 1 из 1
Показать сообщения за:  Поле сортировки  
Начать новую тему Ответить на тему


Сейчас этот форум просматривают: нет зарегистрированных пользователей и гости: 0


Вы не можете начинать темы
Вы не можете отвечать на сообщения
Вы не можете редактировать свои сообщения
Вы не можете удалять свои сообщения
Вы не можете добавлять вложения

Перейти:  
cron