Начать новую тему Ответить на тему
Статистика раздачи
Размер: 159 МБ | Добавлен: 26 мар 2019, 19:28 | Скачали: 0
Сидеров: 0  [0 байт/сек]    Личеров: 0  [0 байт/сек]
Пред. тема | След. тема 

Автор
Сообщение

СообщениеДобавлено: 26 мар 2019, 19:28 

Ответить с цитатой 

Tim Hunter / On The Road With Blind Jack
Жанр: Singer-songwriter/Ballad/Soft Rock/Pop Rock
Носитель: WEB
Год издания: 2017
Страна исполнителя (группы): UK
Аудиокодек: FLAC (*.flac)
Тип рипа: tracks
Битрейт аудио: lossless
Продолжительность: 35:17
Источник (релизер): Bandcamp
Наличие сканов в содержимом раздачи: нет

01. On The Road Overture [00:02:29]
02. On The Road [00:00:39]
03. Jack Fights Back [00:02:57]
04. How Do You Do It [00:03:18]
05. I Remember The Blue Skies [00:03:26]
06. Tales Of Fell and Dales [00:04:04]
07. Love Is Blind [00:03:19]
08. Yorkshire Blues [00:02:43]
09. On My Way Back To Knaresborough [00:03:16]
10. The Road To Your Heart [00:03:11]
11. Here Lies John Metcalfe [00:03:18]
12. Blind Jack (The Inspiration To Win) [00:02:32]
Released June 18, 2017

Tim Hunter - Lead Vocals As John Metcalfe, Backing Vocals, Guitars, Synthesiser, Keyboards, Sequencing, Drums
With:
Jasmine Isa Butterworth: Lead Vocals as Dolly Metcalfe (7,10), Backing vocals (3,4,6,9,11)
Eddie Lawler: Lead Vocals as Bill (Jack's Friend) (4,11)
Sarah Marie Gayle: Backing Vocals (6)
Dan Mizen: Drums (12)
Phil Jackson: as The Jacobite Officer
Код:
-----------------------
DON'T MODIFY THIS FILE
-----------------------
PERFORMER: auCDtect Task Manager, ver. 1.6.0 RC1 build 1.6.0.1
Copyright (c) 2008-2010 y-soft. All rights reserved
[url=http://y-soft.org]http://y-soft.org[/url]
ANALYZER: auCDtect: CD records authenticity detector, version 0.8.2
Copyright (c) 2004 Oleg Berngardt. All rights reserved.
Copyright (c) 2004 Alexander Djourik. All rights reserved.
FILE: 12. Blind Jack (The Inspiration To Win).flac
  Size: 11091457 Hash: 7019E0CB79851FDCE61C91D459E70598 Accuracy: -m0
  Conclusion: CDDA 100%
  Signature: D8CCD7849852206856FC3AF228B102EF5C74D5E7
FILE: 11. Here Lies John Metcalfe.flac
  Size: 19658765 Hash: C73D07268356493BE4B845CAFB9FC9A7 Accuracy: -m0
  Conclusion: CDDA 100%
  Signature: B3FC5EDE484FC2452C776EA325A8A92B47071AE8
FILE: 10. The Road To Your Heart.flac
  Size: 12202497 Hash: 390CE72AF92596B40923FA2B32AF4F25 Accuracy: -m0
  Conclusion: CDDA 100%
  Signature: C085C7BFA97FD5EFCF14E006545D6DED2EF5A39E
FILE: 09. On My Way Back To Knaresborough.flac
  Size: 21536057 Hash: 2976FD3A8112A6F04B73B6AD8982D612 Accuracy: -m0
  Conclusion: CDDA 100%
  Signature: 9E97D480DC223DB8C34B7BC43B1BC4DB88EDABF5
FILE: 08. Yorkshire Blues.flac
  Size: 10564731 Hash: C3D962366EFE03A5E80EEEB8F848445C Accuracy: -m0
  Conclusion: CDDA 100%
  Signature: 70C9119E4247DEFD10501EE9E0AA176BDFC32ABE
FILE: 07. Love Is Blind.flac
  Size: 12538410 Hash: 6FA8B44F750F8525C00C448890620BF2 Accuracy: -m0
  Conclusion: CDDA 100%
  Signature: 42426B2318152C7DCB0B2C2AB91F85194167AF2B
FILE: 06. Tales Of Fell and Dales.flac
  Size: 24020204 Hash: 1EED5F8446F730BC36E940D455B136A5 Accuracy: -m0
  Conclusion: CDDA 100%
  Signature: 45D8C7FE0A3D4306F7BDD3B17BB4FDE6ABE1E478
FILE: 05. I Remember The Blue Skies.flac
  Size: 12419722 Hash: 53FFD4E13D7A366332126EDE8115F816 Accuracy: -m0
  Conclusion: CDDA 100%
  Signature: 110931A9E0473C6F5BDF9FC16F8FD7A3AD36FE56
FILE: 04. How Do You Do It.flac
  Size: 12879195 Hash: 1BD4E5D2D21AC89EAF4BD039F4D0B848 Accuracy: -m0
  Conclusion: CDDA 100%
  Signature: 3FADAB0329619A25A14441FA822431D182C6516B
FILE: 03. Jack Fights Back.flac
  Size: 18264928 Hash: 0F8791A3645535538323D7A4D135A0E2 Accuracy: -m0
  Conclusion: CDDA 100%
  Signature: F5FC3D4E62529CE4331ECD6EDF4F6108AD626B9B
FILE: 02. On The Road.flac
  Size: 2444714 Hash: 27CA6974D4F55E5C56DBCC7E2B8469E5 Accuracy: -m0
  Conclusion: CDDA 100%
  Signature: 3931DE8087F5C3A8E3D4EB30E30C580F488F0745
FILE: 01. On The Road Overture.flac
  Size: 8831260 Hash: 255930B5517447BF5D1C2CE7A5DB27DB Accuracy: -m0
  Conclusion: CDDA 99%
  Signature: CAAF5654212BAE90DF7F5159E608F77702C98A25
Код:
foobar2000 1.3.12 / Dynamic Range Meter 1.1.1
log date: 2018-07-18 11:33:53
--------------------------------------------------------------------------------
Analyzed: Tim Hunter / On The Road With Blind Jack
--------------------------------------------------------------------------------
DR         Peak         RMS     Duration Track
--------------------------------------------------------------------------------
DR10      -6.97 dB   -20.65 dB      2:30 01-On The Road Overture
DR9       -1.30 dB   -13.03 dB      0:39 02-On The Road
DR12      -0.39 dB   -14.07 dB      2:57 03-Jack Fights Back
DR11      -1.99 dB   -15.33 dB      3:18 04-How Do You Do It
DR11      -1.44 dB   -15.36 dB      3:27 05-I Remember The Blue Skies
DR13      -0.85 dB   -16.20 dB      4:05 06-Tales Of Fell and Dales
DR11      -1.99 dB   -14.51 dB      3:19 07-Love Is Blind
DR13      -0.07 dB   -15.21 dB      2:43 08-Yorkshire Blues
DR11       0.00 dB   -12.42 dB      3:16 09-On My Way Back To Knaresborough
DR13       0.00 dB   -14.50 dB      3:11 10-The Road To Your Heart
DR11      -0.81 dB   -14.95 dB      3:19 11-Here Lies John Metcalfe
DR6       -5.39 dB   -12.19 dB      2:33 12-Blind Jack (The Inspiration To Win)
--------------------------------------------------------------------------------
Number of tracks:  12
Official DR value: DR11
Samplerate:        44100 Hz
Channels:          2
Bits per sample:   16
Bitrate:           572 kbps
Codec:             FLAC
================================================================================


Правила, инструкции, FAQ!!!
Торрент  Добавлен [26 мар 2019, 19:28] Скачать торрент Магнет ссылка
Скачать торрент
[ Размер 13.69 КБ / Просмотров 1 ]

Статус
Проверен 
 
Размер  159 МБ
Приватный: Нет (DHT включён)
.torrent скачан  0
 


     Отправить личное сообщение
   
Страница 1 из 1
Показать сообщения за:  Поле сортировки  
Начать новую тему Ответить на тему


Сейчас этот форум просматривают: нет зарегистрированных пользователей и гости: 0


Вы не можете начинать темы
Вы не можете отвечать на сообщения
Вы не можете редактировать свои сообщения
Вы не можете удалять свои сообщения
Вы не можете добавлять вложения

Перейти:  
cron