Начать новую тему Ответить на тему
Статистика раздачи
Размер: 36.52 ГБ | Добавлен: 05 июн 2020, 23:20 | Скачали: 0
Сидеров: 1  [0 байт/сек]    Личеров: 0  [0 байт/сек]
Пред. тема | След. тема 

Автор
Сообщение

СообщениеДобавлено: 05 июн 2020, 23:20 

Ответить с цитатой 

Шостакович - Леди Макбет Мценского уезда / Shostakovich - Lady Macbeth of Mtsensk
Год выпуска: 2008
Лейбл: Arthaus Musik, Rai Trade
Страна-производитель: США
Жанр: Opera
Продолжительность: 02:49:16
Язык: Русский
Субтитры: Русские, английские, французские, немецкие, испанские, итальянские, японские
Режиссер: Lev Dodin (Лев Додин), Andrea Bevilacqua (Андреа Бевилакуа)
Дирижер: James Conlon (Джеймс Конлон)
Исполнители:
Vladimir Vaneev (Владимир Ванеев) - Boris (Борис Тимофеевич Измайлов (купец)) / Vecchio forzato / Fantasma di Boris,
Vsevolod Grivnov (Всеволод Гривнов) - Zinovij (Зиновий Борисович Измайлов (его сын, купец)),
Jeanne-Michèle Charbonnet (Жанна-Мишель Шарбонне) - Katerina Izmajlova (Катерина Львовна Измайлова (жена Зиновия Борисовича)),
Sergej Kunaev (Сергей Кунаев) - Sergej (Сергей (работник)),
Nanà Miriani (Нана Мириани) - Aksin'ja,
Leonid Bomstein (Леонид Бомштейн) - Balordo,
Andrea Cortese (Андреа Кортезе) - Amministratore / Terzo bracciante,
Nikolai Bikov (Николай Быков) - Portiere,
Marco de Carolis (Марко де Каролис) - Prumo bracciante,
Fabio Bertella (Фабио Бертелла) - Secondo bracciante,
Saverio Bambi (Саверио Бамби) - Cocchiere,
Julian Rodescu (Джулиан Родеску) - Pope,
Vladimir Matorin (Владимир Маторин) - Capo della polizia,
Andrea Snarsky (Андреа Снарски) - Piliziotto,
Cristiano Olivieri (Кристиано Оливьери) - Maestro,
Piergiorgio Chiavazza (Пьерджорджио Кьявацца) - Ospite ubriaco,
Armando Caforio (Армандо Кафорио) - Sergente,
Alessandro Galamai (Алесандро Гелемаи) - Sentinella,
Natascha Petrinsky (Наташа Петрински) - Sonetka,
Elena Borin (Елена Борин) - Forzata
Orchestra and Chorus of Maggio Musicale Fiorentino (оркестр и хор муниципального театра Флоренции)
Описание: В глухой русской провинции, в богатой купеческой семье Измайловых томится и тоскует за нелюбимым мужем Катерина. В отсутствие мужа она увлекается новым работником Сергеем. Их выследил свекр, но Катерина устраняет его, подсыпав крысиного яда в пищу. Когда вернувшийся муж застает Сергея в спальне Катерины, любовники убивают и его, а тело прячут в погреб.
Катерина и Сергей торопятся со свадьбой, но их настигает рок в лице пьяного мужичка, случайно обнаружившего труп в погребе. Полиция хватает молодоженов: теперь им дорога в Сибирь, вместе с партией каторжников. В Сибири, на берегу озера разыгрывается финал. Сергей охладел к Катерине и приударяет за разбитной каторжанкой Сонеткой. В отчаянии Катерина бросается в озеро, увлекая за собой Сонетку. А каторжане продолжают свой бесконечный путь.
This 2008 production of Dmitri Shostakovich's 1934 opera, Lady Macbeth of Mtsensk, from the Teatro del Maggio Musicale in Florence doesn't disappoint. American conductor James Conlon brings out every nuance in Shostakovich's score, which beautifully underlines the drama unleashed by a solid cast led by dramatic-voiced Jeanne-Michèle Charbonnet as Katerina, a bourgeois woman who takes up with another man while her husband is away.
This long, four-act opera set in a late-19th-century Russian backwater: Bored housewife meets handsome drifter, she kills her husband, the adulterers are sent to a prison camp, Katerina sees her new husband eyeing another woman and pushes the woman into the Volga river before throwing herself in, too. It's not light entertainment, but there's a lot to savour in a fine production. Director Lev Dodin and designer David Borovsky have kept it simple, if exceedingly drab, focusing everything on the main characters.
Recorded live at the Teatro Comunale Firenze 2008.
Бонусы: Анонсы дисков с операми
Об опере
Качество видео: Blu-ray
Формат/Контейнер: M2TS
Видео кодек: MPEG4
Аудио кодек: LPCM, DTS
Видео поток: MPEG-4 Video, 1920x1080, 23964 kbps, 29.970 fps
Аудио поток 1: LPCM, 2 ch, 48 kHz, 16-bit, 1536 kbps
Аудио поток 2: DTS-HD MA, 7.1 ch, 48 kHz, 16-bit, 2391 kbps (DTS Core: 5.1 / 48 kHz / 1509 kbps / 16-bit)
Аудио поток 3 (в бонусах): German, Dolby Digital Audio, 2 ch, 48 kHz, 192 kbps
Disc Title: Шостакович - Леди Макбет Мценского уезда (Teatro Comunale Firenze) (2008) (Blu-ray 1080i, AVC, DTS-HD 7.1)
Disc Size: 39 210 373 420 bytes
Protection: AACS
BD-Java: No
BDInfo: 0.5.8
Notes:
BDINFO HOME:
Cinema Squid
http://www.cinemasquid.com/blu-ray/tools/bdinfo
INCLUDES FORUMS REPORT FOR:
AVS Forum Blu-ray Audio and Video Specifications Thread
http://www.avsforum.com/avs-vb/showthread.php?t=1155731
********************
PLAYLIST: 00001.MPLS
********************
<--- BEGIN FORUMS PASTE --->Код:
Код:
                                                                                Total   Video
Title                                                           Codec   Length  Movie Size      Disc Size       Bitrate Bitrate Main Audio Track                          Secondary Audio Track
-----                                                           ------  ------- --------------  --------------  ------- ------- ------------------                        ---------------------
00001.MPLS                                                      AVC     2:49:16 37 790 558 208  39 210 373 420  29,77   23,96   LPCM 2.0 1536Kbps (48kHz/16-bit)          DTS-HD Master 7.1 2391Kbps (48kHz/16-bit)

Код:
Код:
DISC INFO:
Disc Title:     Шостакович - Леди Макбет Мценского уезда (Teatro Comunale Firenze) (2008) (Blu-ray 1080i, AVC, DTS-HD 7.1)
Disc Size:      39 210 373 420 bytes
Protection:     AACS
BD-Java:        No
BDInfo:         0.5.8
PLAYLIST REPORT:
Name:                   00001.MPLS
Length:                 2:49:16.179 (h:m:s.ms)
Size:                   37 790 558 208 bytes
Total Bitrate:          29,77 Mbps
VIDEO:
Codec                   Bitrate             Description
-----                   -------             -----------
MPEG-4 AVC Video        23964 kbps          1080i / 29,970 fps / 16:9 / High Profile 4.1
AUDIO:
Codec                           Language        Bitrate         Description
-----                           --------        -------         -----------
LPCM Audio                      Russian         1536 kbps       2.0 / 48 kHz / 1536 kbps / 16-bit
DTS-HD Master Audio             Russian         2391 kbps       7.1 / 48 kHz / 2391 kbps / 16-bit (DTS Core: 5.1 / 48 kHz / 1509 kbps / 16-bit)
SUBTITLES:
Codec                           Language        Bitrate         Description
-----                           --------        -------         -----------
Presentation Graphics           Russian         12,699 kbps
Presentation Graphics           English         14,928 kbps
Presentation Graphics           German          15,372 kbps
Presentation Graphics           French          14,982 kbps
Presentation Graphics           Spanish         14,053 kbps
Presentation Graphics           Italian         13,250 kbps
Presentation Graphics           Japanese        10,989 kbps
FILES:
Name            Time In         Length          Size            Total Bitrate
----            -------         ------          ----            -------------
00000.M2TS      0:00:00.000     1:43:42.216     23 164 870 656  29 783
00001.M2TS      1:43:42.216     1:05:18.915     14 624 544 768  29 854
00005.M2TS      2:49:01.131     0:00:14.047     1 112 064       633
00003.M2TS      2:49:15.178     0:00:01.000     30 720          246
CHAPTERS:
Number          Time In         Length          Avg Video Rate  Max 1-Sec Rate  Max 1-Sec Time  Max 5-Sec Rate  Max 5-Sec Time  Max 10Sec Rate  Max 10Sec Time  Avg Frame Size  Max Frame Size  Max Frame Time
------          -------         ------          --------------  --------------  --------------  --------------  --------------  --------------  --------------  --------------  --------------  --------------
1               0:00:00.000     0:04:02.275     8 293 kbps      30 099 kbps     00:03:34.747    26 060 kbps     00:03:31.377    24 108 kbps     00:03:31.077    34 584 bytes    376 432 bytes   00:01:46.806
2               0:04:02.275     0:05:56.589     21 508 kbps     33 054 kbps     00:05:05.405    27 314 kbps     00:05:03.303    24 410 kbps     00:08:35.815    89 705 bytes    326 750 bytes   00:04:07.880
3               0:09:58.864     0:04:29.202     22 636 kbps     30 890 kbps     00:12:28.080    25 918 kbps     00:11:01.560    25 181 kbps     00:11:01.560    94 412 bytes    341 786 bytes   00:12:31.450
4               0:14:28.067     0:08:27.640     23 732 kbps     32 091 kbps     00:17:17.936    27 810 kbps     00:17:54.106    26 269 kbps     00:19:22.661    98 983 bytes    343 686 bytes   00:19:33.338
5               0:22:55.707     0:01:36.596     23 564 kbps     29 062 kbps     00:24:31.303    26 829 kbps     00:24:27.299    25 231 kbps     00:24:22.294    98 280 bytes    323 492 bytes   00:23:53.698
6               0:24:32.304     0:02:37.157     27 969 kbps     35 256 kbps     00:27:00.986    32 422 kbps     00:26:57.215    30 598 kbps     00:26:35.660    116 653 bytes   324 999 bytes   00:25:39.437
7               0:27:09.461     0:06:37.196     24 972 kbps     34 477 kbps     00:32:01.920    29 513 kbps     00:27:09.661    27 787 kbps     00:32:01.786    104 154 bytes   340 403 bytes   00:30:00.265
8               0:33:46.657     0:02:09.095     23 006 kbps     29 816 kbps     00:33:55.700    27 178 kbps     00:33:51.696    26 762 kbps     00:33:47.425    95 953 bytes    338 122 bytes   00:34:18.856
9               0:35:55.753     0:03:50.763     24 499 kbps     29 750 kbps     00:36:12.303    27 406 kbps     00:39:35.406    26 415 kbps     00:39:32.703    102 180 bytes   356 071 bytes   00:38:39.717
10              0:39:46.517     0:05:43.109     24 753 kbps     32 813 kbps     00:41:30.654    28 787 kbps     00:41:27.351    27 975 kbps     00:41:22.313    103 240 bytes   369 101 bytes   00:45:14.778
11              0:45:29.626     0:06:21.714     24 676 kbps     35 412 kbps     00:50:16.913    28 599 kbps     00:49:59.296    27 662 kbps     00:49:54.291    102 920 bytes   355 393 bytes   00:46:14.238
12              0:51:51.341     0:02:23.776     24 819 kbps     35 721 kbps     00:53:53.763    33 066 kbps     00:53:52.596    28 594 kbps     00:53:48.291    103 516 bytes   334 656 bytes   00:54:15.118
13              0:54:15.118     0:05:50.750     25 048 kbps     32 881 kbps     00:59:10.880    29 633 kbps     00:59:07.777    28 041 kbps     00:59:02.772    104 472 bytes   358 112 bytes   00:54:35.138
14              1:00:05.868     0:02:55.842     25 385 kbps     32 468 kbps     01:01:26.015    29 849 kbps     01:01:42.999    28 924 kbps     01:01:41.497    105 878 bytes   349 131 bytes   01:02:01.417
15              1:03:01.711     0:01:43.069     27 002 kbps     35 548 kbps     01:04:27.096    32 694 kbps     01:04:24.794    31 426 kbps     01:04:23.192    112 620 bytes   317 474 bytes   01:04:13.916
16              1:04:44.780     0:01:13.740     25 938 kbps     31 063 kbps     01:05:18.648    28 764 kbps     01:05:14.844    28 015 kbps     01:05:09.639    108 183 bytes   374 599 bytes   01:04:54.056
17              1:05:58.521     0:04:41.614     25 529 kbps     32 345 kbps     01:06:43.833    29 661 kbps     01:09:47.216    27 749 kbps     01:09:43.712    106 479 bytes   366 632 bytes   01:06:30.219
18              1:10:40.135     0:04:40.446     25 800 kbps     33 034 kbps     01:11:09.698    30 414 kbps     01:12:13.228    29 835 kbps     01:12:13.028    107 608 bytes   335 481 bytes   01:11:16.238
19              1:15:20.582     0:02:29.649     25 952 kbps     33 005 kbps     01:17:09.992    29 231 kbps     01:17:05.988    28 143 kbps     01:17:03.885    108 242 bytes   325 392 bytes   01:16:37.459
20              1:17:50.232     0:06:13.806     24 403 kbps     31 971 kbps     01:18:52.360    29 174 kbps     01:19:44.146    28 459 kbps     01:19:38.907    101 781 bytes   348 027 bytes   01:19:39.908
21              1:24:04.039     0:06:05.865     25 192 kbps     31 915 kbps     01:29:52.820    28 362 kbps     01:27:43.658    28 081 kbps     01:27:38.720    105 071 bytes   344 638 bytes   01:29:38.339
22              1:30:09.904     0:05:24.757     23 802 kbps     33 316 kbps     01:31:30.551    29 425 kbps     01:31:27.648    28 579 kbps     01:31:26.948    99 276 bytes    366 288 bytes   01:34:35.536
23              1:35:34.662     0:01:13.840     24 866 kbps     31 708 kbps     01:36:03.524    27 820 kbps     01:36:27.615    27 127 kbps     01:36:22.510    103 714 bytes   348 135 bytes   01:36:39.693
24              1:36:48.502     0:03:18.798     26 293 kbps     37 335 kbps     01:38:54.862    33 315 kbps     01:38:58.832    31 434 kbps     01:38:53.527    109 665 bytes   331 485 bytes   01:36:56.277
25              1:40:07.301     0:03:34.914     25 267 kbps     34 573 kbps     01:40:17.277    30 523 kbps     01:42:28.041    29 038 kbps     01:42:23.370    105 383 bytes   373 822 bytes   01:43:39.279
26              1:43:42.216     0:02:32.485     20 233 kbps     27 637 kbps     01:45:07.768    24 804 kbps     01:45:55.015    23 349 kbps     01:45:53.213    84 388 bytes    314 082 bytes   01:45:59.986
27              1:46:14.701     0:03:31.844     23 652 kbps     33 326 kbps     01:46:21.007    27 065 kbps     01:48:44.951    25 690 kbps     01:48:39.179    98 649 bytes    328 230 bytes   01:47:15.962
28              1:49:46.546     0:01:27.087     22 746 kbps     29 652 kbps     01:49:47.147    26 647 kbps     01:50:27.320    25 450 kbps     01:50:26.486    94 869 bytes    318 006 bytes   01:49:56.623
29              1:51:13.633     0:07:11.264     23 312 kbps     29 699 kbps     01:52:46.860    27 157 kbps     01:52:55.201    26 545 kbps     01:54:07.774    97 229 bytes    323 555 bytes   01:54:01.701
30              1:58:24.897     0:02:35.221     21 188 kbps     29 760 kbps     01:58:33.506    27 005 kbps     01:58:29.502    25 763 kbps     01:58:27.800    88 373 bytes    329 354 bytes   02:00:48.941
31              2:01:00.119     0:05:17.984     22 371 kbps     33 161 kbps     02:01:18.604    31 085 kbps     02:01:17.870    28 359 kbps     02:01:13.132    93 306 bytes    319 077 bytes   02:04:31.363
32              2:06:18.103     0:02:49.302     22 797 kbps     30 374 kbps     02:08:07.746    27 048 kbps     02:07:50.129    26 111 kbps     02:07:50.596    95 083 bytes    324 806 bytes   02:07:56.502
33              2:09:07.406     0:01:44.471     24 288 kbps     34 200 kbps     02:10:31.290    29 319 kbps     02:09:48.947    28 135 kbps     02:09:47.679    101 303 bytes   348 721 bytes   02:10:08.901
34              2:10:51.877     0:06:48.608     26 237 kbps     38 287 kbps     02:12:15.260    35 539 kbps     02:12:14.860    34 994 kbps     02:12:14.626    109 431 bytes   433 494 bytes   02:12:21.433
35              2:17:40.485     0:03:51.664     23 677 kbps     35 046 kbps     02:20:25.250    27 424 kbps     02:20:21.246    26 576 kbps     02:20:16.241    98 754 bytes    348 323 bytes   02:20:39.063
36              2:21:32.150     0:03:34.581     22 480 kbps     28 812 kbps     02:24:46.077    26 003 kbps     02:24:54.652    25 333 kbps     02:24:49.647    93 759 bytes    351 150 bytes   02:24:56.320
37              2:25:06.731     0:07:50.470     25 023 kbps     32 682 kbps     02:27:15.660    29 081 kbps     02:31:52.536    28 242 kbps     02:31:39.857    104 368 bytes   352 796 bytes   02:26:59.043
38              2:32:57.201     0:05:40.039     26 642 kbps     38 017 kbps     02:37:37.648    34 836 kbps     02:37:06.450    34 087 kbps     02:37:01.645    111 120 bytes   365 842 bytes   02:34:51.482
39              2:38:37.241     0:07:03.456     24 212 kbps     31 602 kbps     02:44:31.928    30 016 kbps     02:44:31.127    28 380 kbps     02:44:31.761    100 986 bytes   380 186 bytes   02:45:04.160
40              2:45:40.697     0:03:20.433     24 973 kbps     31 824 kbps     02:48:09.245    29 386 kbps     02:46:00.750    27 955 kbps     02:48:02.972    104 158 bytes   365 943 bytes   02:47:08.785
41              2:49:01.131     0:00:14.047     526 kbps        1 474 kbps      02:49:06.503    985 kbps        02:49:02.298    686 kbps        02:49:01.131    2 196 bytes     23 543 bytes    02:49:04.134
42              2:49:15.178     0:00:01.001     111 kbps        0 kbps          00:00:00.000    0 kbps          00:00:00.000    0 kbps          00:00:00.000    478 bytes       2 434 bytes     02:49:15.778
STREAM DIAGNOSTICS:
File            PID             Type            Codec           Language                Seconds                 Bitrate                 Bytes           Packets
----            ---             ----            -----           --------                --------------          --------------          -------------   -----
00000.M2TS      4113 (0x1011)   0x1B            AVC                                     6222,083                24 000                  18 666 289 521  101 556 468
00000.M2TS      4352 (0x1100)   0x80            LPCM            rus (Russian)           6222,083                1 542                   1 199 644 016   7 466 664
00000.M2TS      4353 (0x1101)   0x86            DTS-HD MA       rus (Russian)           6222,083                2 370                   1 842 983 660   10 990 876
00000.M2TS      4608 (0x1200)   0x90            PGS             rus (Russian)           6222,083                13                      9 870 406       57 675
00000.M2TS      4609 (0x1201)   0x90            PGS             eng (English)           6222,083                15                      11 279 886      65 347
00000.M2TS      4610 (0x1202)   0x90            PGS             deu (German)            6222,083                15                      11 737 156      67 806
00000.M2TS      4611 (0x1203)   0x90            PGS             fra (French)            6222,083                15                      11 409 217      66 027
00000.M2TS      4612 (0x1204)   0x90            PGS             spa (Spanish)           6222,083                14                      10 695 643      62 134
00000.M2TS      4613 (0x1205)   0x90            PGS             ita (Italian)           6222,083                13                      10 072 450      58 760
00000.M2TS      4614 (0x1206)   0x90            PGS             jpn (Japanese)          6222,083                11                      8 481 743       50 117
00001.M2TS      4113 (0x1011)   0x1B            AVC                                     3918,848                23 999                  11 756 221 380  63 961 213
00001.M2TS      4352 (0x1100)   0x80            LPCM            rus (Russian)           3918,848                1 542                   755 567 776     4 702 704
00001.M2TS      4353 (0x1101)   0x86            DTS-HD MA       rus (Russian)           3918,848                2 433                   1 191 837 016   7 091 195
00001.M2TS      4608 (0x1200)   0x90            PGS             rus (Russian)           3918,848                13                      6 251 143       36 615
00001.M2TS      4609 (0x1201)   0x90            PGS             eng (English)           3918,848                16                      7 671 053       44 335
00001.M2TS      4610 (0x1202)   0x90            PGS             deu (German)            3918,848                16                      7 778 118       44 912
00001.M2TS      4611 (0x1203)   0x90            PGS             fra (French)            3918,848                16                      7 611 082       44 017
00001.M2TS      4612 (0x1204)   0x90            PGS             spa (Spanish)           3918,848                15                      7 145 437       41 483
00001.M2TS      4613 (0x1205)   0x90            PGS             ita (Italian)           3918,848                14                      6 748 412       39 320
00001.M2TS      4614 (0x1206)   0x90            PGS             jpn (Japanese)          3918,848                11                      5 469 163       32 384
00005.M2TS      4113 (0x1011)   0x1B            AVC                                     13,914                  532                     924 426         5 314
00003.M2TS      4113 (0x1011)   0x1B            AVC                                     0,901                   145                     16 297          112

<---- END FORUMS PASTE ---->
QUICK SUMMARY:
Disc Title: Шостакович - Леди Макбет Мценского уезда (Teatro Comunale Firenze) (2008) (Blu-ray 1080i, AVC, DTS-HD 7.1)
Disc Size: 39 210 373 420 bytes
Protection: AACS
BD-Java: No
Playlist: 00001.MPLS
Size: 37 790 558 208 bytes
Length: 2:49:16.179
Total Bitrate: 29,77 Mbps
Video: MPEG-4 AVC Video / 23964 kbps / 1080i / 29,970 fps / 16:9 / High Profile 4.1
Audio: Russian / LPCM Audio / 2.0 / 48 kHz / 1536 kbps / 16-bit
Audio: Russian / DTS-HD Master Audio / 7.1 / 48 kHz / 2391 kbps / 16-bit (DTS Core: 5.1 / 48 kHz / 1509 kbps / 16-bit)
Subtitle: Russian / 12,699 kbps
Subtitle: English / 14,928 kbps
Subtitle: German / 15,372 kbps
Subtitle: French / 14,982 kbps
Subtitle: Spanish / 14,053 kbps
Subtitle: Italian / 13,250 kbps
Subtitle: Japanese / 10,989 kbps
********************
PLAYLIST: 00005.MPLS
********************
<--- BEGIN FORUMS PASTE --->Код:
Код:
                                                                                Total   Video
Title                                                           Codec   Length  Movie Size      Disc Size       Bitrate Bitrate Main Audio Track                          Secondary Audio Track
-----                                                           ------  ------- --------------  --------------  ------- ------- ------------------                        ---------------------
00005.MPLS                                                      AVC     0:03:07 346 601 472     39 210 373 420  14,81   13,89   DD AC3 2.0 192Kbps

Код:
Код:
DISC INFO:
Disc Title:     Шостакович - Леди Макбет Мценского уезда (Teatro Comunale Firenze) (2008) (Blu-ray 1080i, AVC, DTS-HD 7.1)
Disc Size:      39 210 373 420 bytes
Protection:     AACS
BD-Java:        No
BDInfo:         0.5.8
PLAYLIST REPORT:
Name:                   00005.MPLS
Length:                 0:03:07.187 (h:m:s.ms)
Size:                   346 601 472 bytes
Total Bitrate:          14,81 Mbps
VIDEO:
Codec                   Bitrate             Description
-----                   -------             -----------
MPEG-4 AVC Video        13892 kbps          1080i / 29,970 fps / 16:9 / High Profile 4.1
AUDIO:
Codec                           Language        Bitrate         Description
-----                           --------        -------         -----------
Dolby Digital Audio             German          192 kbps        2.0 / 48 kHz / 192 kbps
FILES:
Name            Time In         Length          Size            Total Bitrate
----            -------         ------          ----            -------------
00010.M2TS      0:00:00.000     0:03:06.186     346 570 752     14 891
00003.M2TS      0:03:06.186     0:00:01.000     30 720          246
CHAPTERS:
Number          Time In         Length          Avg Video Rate  Max 1-Sec Rate  Max 1-Sec Time  Max 5-Sec Rate  Max 5-Sec Time  Max 10Sec Rate  Max 10Sec Time  Avg Frame Size  Max Frame Size  Max Frame Time
------          -------         ------          --------------  --------------  --------------  --------------  --------------  --------------  --------------  --------------  --------------  --------------
1               0:00:00.000     0:03:06.186     13 966 kbps     25 105 kbps     00:01:07.200    22 246 kbps     00:00:08.641    21 103 kbps     00:00:09.075    58 240 bytes    291 894 bytes   00:00:11.077
2               0:03:06.186     0:00:01.000     111 kbps        0 kbps          00:00:00.000    0 kbps          00:00:00.000    0 kbps          00:00:00.000    478 bytes       2 434 bytes     00:03:06.786
STREAM DIAGNOSTICS:
File            PID             Type            Codec           Language                Seconds                 Bitrate                 Bytes           Packets
----            ---             ----            -----           --------                --------------          --------------          -------------   -----
00010.M2TS      4113 (0x1011)   0x1B            AVC                                     186,119                 13 971                  325 033 158     1 769 734
00010.M2TS      4352 (0x1100)   0x81            AC3             deu (German)            186,119                 192                     4 464 384       29 065
00003.M2TS      4113 (0x1011)   0x1B            AVC                                     0,901                   145                     16 297          112

<---- END FORUMS PASTE ---->
QUICK SUMMARY:
Disc Title: Шостакович - Леди Макбет Мценского уезда (Teatro Comunale Firenze) (2008) (Blu-ray 1080i, AVC, DTS-HD 7.1)
Disc Size: 39 210 373 420 bytes
Protection: AACS
BD-Java: No
Playlist: 00005.MPLS
Size: 346 601 472 bytes
Length: 0:03:07.187
Total Bitrate: 14,81 Mbps
Video: MPEG-4 AVC Video / 13892 kbps / 1080i / 29,970 fps / 16:9 / High Profile 4.1
Audio: German / Dolby Digital Audio / 2.0 / 48 kHz / 192 kbps
********************
PLAYLIST: 00004.MPLS
********************
<--- BEGIN FORUMS PASTE --->Код:
Код:
                                                                                Total   Video
Title                                                           Codec   Length  Movie Size      Disc Size       Bitrate Bitrate Main Audio Track                          Secondary Audio Track
-----                                                           ------  ------- --------------  --------------  ------- ------- ------------------                        ---------------------
00004.MPLS                                                      AVC     0:02:52 319 014 912     39 210 373 420  14,82   13,90   DD AC3 2.0 192Kbps

Код:
Код:
DISC INFO:
Disc Title:     Шостакович - Леди Макбет Мценского уезда (Teatro Comunale Firenze) (2008) (Blu-ray 1080i, AVC, DTS-HD 7.1)
Disc Size:      39 210 373 420 bytes
Protection:     AACS
BD-Java:        No
BDInfo:         0.5.8
PLAYLIST REPORT:
Name:                   00004.MPLS
Length:                 0:02:52.172 (h:m:s.ms)
Size:                   319 014 912 bytes
Total Bitrate:          14,82 Mbps
VIDEO:
Codec                   Bitrate             Description
-----                   -------             -----------
MPEG-4 AVC Video        13901 kbps          1080i / 29,970 fps / 16:9 / High Profile 4.1
AUDIO:
Codec                           Language        Bitrate         Description
-----                           --------        -------         -----------
Dolby Digital Audio             German          192 kbps        2.0 / 48 kHz / 192 kbps
FILES:
Name            Time In         Length          Size            Total Bitrate
----            -------         ------          ----            -------------
00009.M2TS      0:00:00.000     0:02:51.171     318 984 192     14 908
00003.M2TS      0:02:51.171     0:00:01.000     30 720          246
CHAPTERS:
Number          Time In         Length          Avg Video Rate  Max 1-Sec Rate  Max 1-Sec Time  Max 5-Sec Rate  Max 5-Sec Time  Max 10Sec Rate  Max 10Sec Time  Avg Frame Size  Max Frame Size  Max Frame Time
------          -------         ------          --------------  --------------  --------------  --------------  --------------  --------------  --------------  --------------  --------------  --------------
1               0:00:00.000     0:02:51.171     13 982 kbps     20 873 kbps     00:00:39.806    18 874 kbps     00:01:06.166    17 470 kbps     00:01:05.165    58 303 bytes    290 876 bytes   00:02:38.491
2               0:02:51.171     0:00:01.000     111 kbps        0 kbps          00:00:00.000    0 kbps          00:00:00.000    0 kbps          00:00:00.000    478 bytes       2 434 bytes     00:02:51.771
STREAM DIAGNOSTICS:
File            PID             Type            Codec           Language                Seconds                 Bitrate                 Bytes           Packets
----            ---             ----            -----           --------                --------------          --------------          -------------   -----
00009.M2TS      4113 (0x1011)   0x1B            AVC                                     171,104                 13 987                  299 152 235     1 628 880
00009.M2TS      4352 (0x1100)   0x81            AC3             deu (German)            171,104                 192                     4 108 800       26 750
00003.M2TS      4113 (0x1011)   0x1B            AVC                                     0,901                   145                     16 297          112

<---- END FORUMS PASTE ---->
QUICK SUMMARY:
Disc Title: Шостакович - Леди Макбет Мценского уезда (Teatro Comunale Firenze) (2008) (Blu-ray 1080i, AVC, DTS-HD 7.1)
Disc Size: 39 210 373 420 bytes
Protection: AACS
BD-Java: No
Playlist: 00004.MPLS
Size: 319 014 912 bytes
Length: 0:02:52.172
Total Bitrate: 14,82 Mbps
Video: MPEG-4 AVC Video / 13901 kbps / 1080i / 29,970 fps / 16:9 / High Profile 4.1
Audio: German / Dolby Digital Audio / 2.0 / 48 kHz / 192 kbps
********************
PLAYLIST: 00006.MPLS
********************
<--- BEGIN FORUMS PASTE --->Код:
Код:
                                                                                Total   Video
Title                                                           Codec   Length  Movie Size      Disc Size       Bitrate Bitrate Main Audio Track                          Secondary Audio Track
-----                                                           ------  ------- --------------  --------------  ------- ------- ------------------                        ---------------------
00006.MPLS                                                      AVC     0:02:51 318 265 344     39 210 373 420  14,87   13,95   DD AC3 2.0 192Kbps

Код:
Код:
DISC INFO:
Disc Title:     Шостакович - Леди Макбет Мценского уезда (Teatro Comunale Firenze) (2008) (Blu-ray 1080i, AVC, DTS-HD 7.1)
Disc Size:      39 210 373 420 bytes
Protection:     AACS
BD-Java:        No
BDInfo:         0.5.8
PLAYLIST REPORT:
Name:                   00006.MPLS
Length:                 0:02:51.170 (h:m:s.ms)
Size:                   318 265 344 bytes
Total Bitrate:          14,87 Mbps
VIDEO:
Codec                   Bitrate             Description
-----                   -------             -----------
MPEG-4 AVC Video        13951 kbps          1080i / 29,970 fps / 16:9 / High Profile 4.1
AUDIO:
Codec                           Language        Bitrate         Description
-----                           --------        -------         -----------
Dolby Digital Audio             German          192 kbps        2.0 / 48 kHz / 192 kbps
FILES:
Name            Time In         Length          Size            Total Bitrate
----            -------         ------          ----            -------------
00011.M2TS      0:00:00.000     0:02:50.169     318 234 624     14 961
00003.M2TS      0:02:50.169     0:00:01.000     30 720          246
CHAPTERS:
Number          Time In         Length          Avg Video Rate  Max 1-Sec Rate  Max 1-Sec Time  Max 5-Sec Rate  Max 5-Sec Time  Max 10Sec Rate  Max 10Sec Time  Avg Frame Size  Max Frame Size  Max Frame Time
------          -------         ------          --------------  --------------  --------------  --------------  --------------  --------------  --------------  --------------  --------------  --------------
1               0:00:00.000     0:02:50.169     14 032 kbps     22 180 kbps     00:00:07.140    17 996 kbps     00:00:07.073    16 836 kbps     00:00:07.073    58 514 bytes    260 289 bytes   00:00:07.207
2               0:02:50.169     0:00:01.000     111 kbps        0 kbps          00:00:00.000    0 kbps          00:00:00.000    0 kbps          00:00:00.000    478 bytes       2 434 bytes     00:02:50.770
STREAM DIAGNOSTICS:
File            PID             Type            Codec           Language                Seconds                 Bitrate                 Bytes           Packets
----            ---             ----            -----           --------                --------------          --------------          -------------   -----
00011.M2TS      4113 (0x1011)   0x1B            AVC                                     170,070                 14 040                  298 480 012     1 625 149
00011.M2TS      4352 (0x1100)   0x81            AC3             deu (German)            170,070                 192                     4 084 224       26 590
00003.M2TS      4113 (0x1011)   0x1B            AVC                                     0,901                   145                     16 297          112

<---- END FORUMS PASTE ---->
QUICK SUMMARY:
Disc Title: Шостакович - Леди Макбет Мценского уезда (Teatro Comunale Firenze) (2008) (Blu-ray 1080i, AVC, DTS-HD 7.1)
Disc Size: 39 210 373 420 bytes
Protection: AACS
BD-Java: No
Playlist: 00006.MPLS
Size: 318 265 344 bytes
Length: 0:02:51.170
Total Bitrate: 14,87 Mbps
Video: MPEG-4 AVC Video / 13951 kbps / 1080i / 29,970 fps / 16:9 / High Profile 4.1
Audio: German / Dolby Digital Audio / 2.0 / 48 kHz / 192 kbps
********************
PLAYLIST: 00007.MPLS
********************
<--- BEGIN FORUMS PASTE --->Код:
Код:
                                                                                Total   Video
Title                                                           Codec   Length  Movie Size      Disc Size       Bitrate Bitrate Main Audio Track                          Secondary Audio Track
-----                                                           ------  ------- --------------  --------------  ------- ------- ------------------                        ---------------------
00007.MPLS                                                      AVC     0:02:43 302 315 520     39 210 373 420  14,82   13,90   DD AC3 2.0 192Kbps

Код:
Код:
DISC INFO:
Disc Title:     Шостакович - Леди Макбет Мценского уезда (Teatro Comunale Firenze) (2008) (Blu-ray 1080i, AVC, DTS-HD 7.1)
Disc Size:      39 210 373 420 bytes
Protection:     AACS
BD-Java:        No
BDInfo:         0.5.8
PLAYLIST REPORT:
Name:                   00007.MPLS
Length:                 0:02:43.196 (h:m:s.ms)
Size:                   302 315 520 bytes
Total Bitrate:          14,82 Mbps
VIDEO:
Codec                   Bitrate             Description
-----                   -------             -----------
MPEG-4 AVC Video        13898 kbps          1080i / 29,970 fps / 16:9 / High Profile 4.1
AUDIO:
Codec                           Language        Bitrate         Description
-----                           --------        -------         -----------
Dolby Digital Audio             German          192 kbps        2.0 / 48 kHz / 192 kbps
FILES:
Name            Time In         Length          Size            Total Bitrate
----            -------         ------          ----            -------------
00012.M2TS      0:00:00.000     0:02:42.195     302 284 800     14 910
00003.M2TS      0:02:42.195     0:00:01.000     30 720          246
CHAPTERS:
Number          Time In         Length          Avg Video Rate  Max 1-Sec Rate  Max 1-Sec Time  Max 5-Sec Rate  Max 5-Sec Time  Max 10Sec Rate  Max 10Sec Time  Avg Frame Size  Max Frame Size  Max Frame Time
------          -------         ------          --------------  --------------  --------------  --------------  --------------  --------------  --------------  --------------  --------------  --------------
1               0:00:00.000     0:02:42.195     13 983 kbps     21 950 kbps     00:02:21.474    19 728 kbps     00:02:20.640    19 227 kbps     00:02:21.241    58 309 bytes    306 298 bytes   00:02:29.115
2               0:02:42.195     0:00:01.000     111 kbps        0 kbps          00:00:00.000    0 kbps          00:00:00.000    0 kbps          00:00:00.000    478 bytes       2 434 bytes     00:02:42.795
STREAM DIAGNOSTICS:
File            PID             Type            Codec           Language                Seconds                 Bitrate                 Bytes           Packets
----            ---             ----            -----           --------                --------------          --------------          -------------   -----
00012.M2TS      4113 (0x1011)   0x1B            AVC                                     162,129                 13 989                  283 495 923     1 543 608
00012.M2TS      4352 (0x1100)   0x81            AC3             deu (German)            162,129                 192                     3 892 992       25 345
00003.M2TS      4113 (0x1011)   0x1B            AVC                                     0,901                   145                     16 297          112

<---- END FORUMS PASTE ---->
QUICK SUMMARY:
Disc Title: Шостакович - Леди Макбет Мценского уезда (Teatro Comunale Firenze) (2008) (Blu-ray 1080i, AVC, DTS-HD 7.1)
Disc Size: 39 210 373 420 bytes
Protection: AACS
BD-Java: No
Playlist: 00007.MPLS
Size: 302 315 520 bytes
Length: 0:02:43.196
Total Bitrate: 14,82 Mbps
Video: MPEG-4 AVC Video / 13898 kbps / 1080i / 29,970 fps / 16:9 / High Profile 4.1
Audio: German / Dolby Digital Audio / 2.0 / 48 kHz / 192 kbps
Семпл


Правила, инструкции, FAQ!!!
Торрент  Добавлен [05 июн 2020, 23:20] Скачать торрент Магнет ссылка
Скачать торрент
[ Размер 95.13 КБ / Просмотров 8 ]

Статус
Проверен 
 
Размер  36.52 ГБ
Приватный: Нет (DHT включён)
.torrent скачан  0
 


     Отправить личное сообщение
   
Страница 1 из 1
Показать сообщения за:  Поле сортировки  
Начать новую тему Ответить на тему


Сейчас этот форум просматривают: нет зарегистрированных пользователей и гости: 0


Вы не можете начинать темы
Вы не можете отвечать на сообщения
Вы не можете редактировать свои сообщения
Вы не можете удалять свои сообщения
Вы не можете добавлять вложения

Перейти:  
cron