Начать новую тему Ответить на тему
Статистика раздачи
Размер: 202.78 МБ | Добавлен: 01 янв 2020, 23:07 | Скачали: 0
Сидеров: 1  [0 байт/сек]    Личеров: 0  [0 байт/сек]
Пред. тема | След. тема 

Автор
Сообщение

СообщениеДобавлено: 01 янв 2020, 23:07 

Ответить с цитатой 

Рождество с Мирей Матье / Weihnachten mit Mireille Mathieu
Жанр: Weltmusik
Год выпуска диска: 1993
Производитель диска: Germany
Аудио кодек: FLAC
Тип рипа: image+.cue
Битрейт аудио: lossless
Продолжительность: 35:08
Трэклист:
1. Noël blanc (White Christmas) 3:40
2. Petit Papa Noël 2:52
3. Noël d'Aubervilliers 2:58
4. La cambo mi fa maou 2:18
5. Mon beau sapin (O Tannenbaum) 2:10
6. Il est né le divin enfant 3:15
7. Vive le vent 2:18
8. Douce nuit (Stille Nacht, heilige Nacht) 3:10
9. Rin-Rin 2:22
10. Les enfants de Noël 2:34
11. Minuit, chretiens 3:26
12. Les anges dans nos campagnes (Gloria in excelsis Deo) 3:10
Код:
Exact Audio Copy V0.99 prebeta 5 from 4. May 2009
EAC extraction logfile from 7. January 2010, 22:50
 Mireille Mathieu / Weihnachten mit Mireille Mathieu
Used drive  : Optiarc DVD RW AD-7173A   Adapter: 4  ID: 0
Read mode               : Secure
Utilize accurate stream : Yes
Defeat audio cache      : Yes
Make use of C2 pointers : No
Read offset correction                      : 48
Overread into Lead-In and Lead-Out          : No
Fill up missing offset samples with silence : Yes
Delete leading and trailing silent blocks   : No
Null samples used in CRC calculations       : Yes
Used interface                              : Native Win32 interface for Win NT & 2000
Used output format              : User Defined Encoder
Selected bitrate                : 192 kBit/s
Quality                         : High
Add ID3 tag                     : No
Command line compressor         : F:\Programmes\Audio\Exact Audio Copy\flac-1.2.1b.exe
Additional command line options : ?8 ?V ?T "ARTIST=%a" ?T "TITLE=%t" ?T "ALBUM=%g" ?T "DATE=%y" ?T "TRACKNUMBER=%n" ?T "GENRE=%m" ?T "COMMENT=EAC FLAC ?8" %s
TOC of the extracted CD
     Track |   Start  |  Length  | Start sector | End sector
    ---------------------------------------------------------
        1  |  0:00.33 |  3:44.55 |        33    |    16887
        2  |  3:45.13 |  2:56.00 |     16888    |    30087
        3  |  6:41.13 |  3:03.65 |     30088    |    43877
        4  |  9:45.03 |  2:22.05 |     43878    |    54532
        5  | 12:07.08 |  2:14.02 |     54533    |    64584
        6  | 14:21.10 |  3:18.30 |     64585    |    79464
        7  | 17:39.40 |  2:21.10 |     79465    |    90049
        8  | 20:00.50 |  3:16.23 |     90050    |   104772
        9  | 23:16.73 |  2:24.42 |    104773    |   115614
       10  | 25:41.40 |  2:38.50 |    115615    |   127514
       11  | 28:20.15 |  3:31.20 |    127515    |   143359
       12  | 31:51.35 |  3:14.73 |    143360    |   157982
Range status and errors
Selected range
     Filename G:\temp\MirelleMathieu\Weihnachten mit Mireille Mathieu\Mireille Mathieu - Weihnachten mit Mireille Mathieu.wav
     Peak level 100.0 %
     Range quality 100.0 %
     Test CRC C16DB45F
     Copy CRC C16DB45F
     Copy OK
No errors occurred
End of status report
Свою первую пластинку рождественских песен знаменитая французская певица Мирей Матье записала еще в 1968 году. В 1993 альбом был переиздан. Песни Рождества – от общеевропейских до французских, от средневековых до современных – поет Мирей Матье на французском, испанском и даже провансальском языках. В альбом "Мирей Матье поет о Рождестве" вошли рождественские гимны, написанные во Франции и Германии в период с XVI по XIX век. В праздничном репертуаре певицы также песни знаменитых композиторов Франции XX – Поля Мориа и Франсиса Лея.
Среди песен – такие как Jingle Bells или Vive le Vent- "да здравствует ветер, да здравствует зимний ветер, гуляющий в зеленых елях! да здравствует зима со снегом, новым годом и новогодними поздравлениями! "
Рождественский гимн "Тихая ночь". Этот гимн был впервые исполнен в рождественский сочельник 24 декабря 1818 года в церкви Святого Николая в австрийской деревне Оберндорф под Зальцбургом
White Christmas - "Белое Рождество". Она звучала в сотнях интерпретаций известнейших артистов. Её исполняли Бинг Кросби и Фрэнк Синатра, Барбара Стрейзанд, Элвис Пресли и Хосе Каррерас, Далида и классик французского рок-н-ролла Эдди Митчелл. На этом диске песня "Белое Рождество" - Noël Blanc - звучит в исполнении Мирей Матье.
Из 1940 годов дошла до нашего времени одна из самых известных во Франции рождественских и новогодних песен,посвященных Деду Морозу – Père Noël. "Дедушка мороз, когда ты спустишься с небес с тысячей подарков, не забудь и про меня".
Песня "Mon beau sapin" – "Моя прекрасная ель". У её мелодии оказалась весьма замысловатая судьба. На ту же самую музыку исполняется песня "Красное знамя", бывшая гимном лейбористской партии Великобритании, а также официальный гимн американского штата Мэриленд.
Гимн "Les Anges dans nos campagnes" - "Ангелы, к нам весть дошла". Рефреном в этой песне стали слова из древнего христианского богослужебного гимна "Слава в вышних Богу". Во французской песне эти слова сохранены в латинском переводе.
Торжество, радость и свет праздника Рождества Христова звучит в песне «Божественное дитя». Мелодия этой песни уходит корнями во французский XVII век. Впервые её текст был опубликован в 1874 году в сборнике, который составил органист церкви в местечке Сен-Дье в Лотарингии.
Песня "Придет дитя" была написана специально для певицы известным французским поэтом Эдди Марнэ и немецким композитором Кристианом Брюном.
В этом альбоме Мирей Матье напоминает о том, что даже в самой Франции рождественские песни пелись не только на французском. La Cambа me Fai Mau - праздничная песня XVII века на провансальском (окситанском) языке .
Просто великолепная песня - "Рождество в Обервилье". В конце 1960 годов её написал французский поэт Бернар Диме. Музыку к песне сочинил знаменитый французский кинокомпозитор Франсис Ле.
Этот альбом делает уникальным еще и то, что здесь Мирей исполняет некоторые песни вместе со своей семьей – с братьями, сестрами и с отцом.
Правила, инструкции, FAQ!!!
Торрент  Добавлен [01 янв 2020, 23:07] Скачать торрент Магнет ссылка
Скачать торрент
[ Размер 16.54 КБ / Просмотров 10 ]

Статус
Проверен 
 
Размер  202.78 МБ
Приватный: Нет (DHT включён)
.torrent скачан  0
 


     Отправить личное сообщение
   
Страница 1 из 1
Показать сообщения за:  Поле сортировки  
Начать новую тему Ответить на тему


Сейчас этот форум просматривают: нет зарегистрированных пользователей и гости: 0


Вы не можете начинать темы
Вы не можете отвечать на сообщения
Вы не можете редактировать свои сообщения
Вы не можете удалять свои сообщения
Вы не можете добавлять вложения

Перейти:  
cron