Начать новую тему Ответить на тему
Статистика раздачи
Размер: 292.72 МБ | Добавлен: 01 янв 2020, 22:51 | Скачали: 1
Сидеров: 1  [0 байт/сек]    Личеров: 0  [0 байт/сек]
Пред. тема | След. тема 

Автор
Сообщение

СообщениеДобавлено: 01 янв 2020, 22:51 

Ответить с цитатой 

Mireille Mathieu - Grand Collection
Жанр: шансон
Год выпуска диска: 2001
Производитель диска: Производитель диска - Россия
Аудио кодек: FLAC
Тип рипа: tracks+.cue
Продолжительность: 44:36
Трэклист:
1. Mon Credo
2. Pardonne-Moi Ce Caprice D`Enfant
3. Un Homme Et Une Femme
4. Je Ne Suis Rien Sans Toi
5. Quand On Revient
6. La Premiere Etoile
7. La Derniere Valse
8. Paris En Colere
9. Qu`Elle Est Belle
10. Acropolis Adieu
11. J`Ai Garde I`Accent
12. C`Est A Mayerling
13. Viens Dans Ma Rue
14. C`Est Ton Nom
15. Donne Ton Coeur Donne Ta Vie
16. Toi Et Moi
EAC extraction logfile from 13. January 2010, 22:34 for CD
Mireille Mathieu / Grand Collection
Used drive : HL-DT-STDVDRAM GSA-T20N Adapter: 2 ID: 0
Read mode : Secure with NO C2, accurate stream, disable cache
Read offset correction : 667
Overread into Lead-In and Lead-Out : No
Used output format : C:\Program Files\FLAC\flac.exe (User Defined Encoder)
320 kBit/s
Additional command line options : -8 -V -T "ARTIST=%a" -T "TITLE=%t" -T "ALBUM=%g" -T "DATE=%y" -T "TRACKNUMBER=%n" -T "GENRE=%m" -T "COMMENT=EAC FLAC -8" %s
Other options :
Fill up missing offset samples with silence : Yes
Delete leading and trailing silent blocks : No
Native Win32 interface for Win NT & 2000
Track 1
Filename C:\Extracted\Mireille Mathieu\2001 - Grand Collection\01 - Mon Credo.wav
Pre-gap length 0:00:02.00
Peak level 76.1 %
Track quality 99.9 %
Test CRC E9099E31
Copy CRC E9099E31
Copy OK
Track 2
Filename C:\Extracted\Mireille Mathieu\2001 - Grand Collection\02 - Quand On Revient.wav
Peak level 95.7 %
Track quality 100.0 %
Test CRC 164C96CF
Copy CRC 164C96CF
Copy OK
Track 3
Filename C:\Extracted\Mireille Mathieu\2001 - Grand Collection\03 - La Premiere Etoile.wav
Peak level 80.2 %
Track quality 100.0 %
Test CRC F180FD0F
Copy CRC F180FD0F
Copy OK
Track 4
Filename C:\Extracted\Mireille Mathieu\2001 - Grand Collection\04 - Viens Dans Ma Rue.wav
Peak level 97.9 %
Track quality 100.0 %
Test CRC 59ECAE49
Copy CRC 59ECAE49
Copy OK
Track 5
Filename C:\Extracted\Mireille Mathieu\2001 - Grand Collection\05 - La Derniere Valse.wav
Peak level 81.3 %
Track quality 100.0 %
Test CRC F09DFA09
Copy CRC F09DFA09
Copy OK
Track 6
Filename C:\Extracted\Mireille Mathieu\2001 - Grand Collection\06 - Un Homme Et Une Femme.wav
Peak level 97.9 %
Track quality 100.0 %
Test CRC 0658F2AE
Copy CRC 0658F2AE
Copy OK
Track 7
Filename C:\Extracted\Mireille Mathieu\2001 - Grand Collection\07 - Paris En Colere.wav
Peak level 87.3 %
Track quality 100.0 %
Test CRC FA0E122D
Copy CRC FA0E122D
Copy OK
Track 8
Filename C:\Extracted\Mireille Mathieu\2001 - Grand Collection\08 - Qu'elle Est Belle.wav
Peak level 86.4 %
Track quality 100.0 %
Test CRC F55AF457
Copy CRC F55AF457
Copy OK
Track 9
Filename C:\Extracted\Mireille Mathieu\2001 - Grand Collection\09 - J'ai Garde I'accent.wav
Peak level 99.6 %
Track quality 100.0 %
Test CRC 1C54C158
Copy CRC 1C54C158
Copy OK
Track 10
Filename C:\Extracted\Mireille Mathieu\2001 - Grand Collection\10 - Acropolis Adieu.wav
Peak level 75.8 %
Track quality 99.9 %
Test CRC C095A638
Copy CRC C095A638
Copy OK
Track 11
Filename C:\Extracted\Mireille Mathieu\2001 - Grand Collection\11 - Pardonne-Moi Ce Caprice d'Enfant.wav
Peak level 87.0 %
Track quality 99.9 %
Test CRC F4DB0BD4
Copy CRC F4DB0BD4
Copy OK
Track 12
Filename C:\Extracted\Mireille Mathieu\2001 - Grand Collection\12 - C'est Ton Nom.wav
Peak level 79.4 %
Track quality 100.0 %
Test CRC 4588283B
Copy CRC 4588283B
Copy OK
Track 13
Filename C:\Extracted\Mireille Mathieu\2001 - Grand Collection\13 - Je Ne Suis Rien Sans Toi.wav
Peak level 97.9 %
Track quality 100.0 %
Test CRC 968AA45A
Copy CRC 968AA45A
Copy OK
Track 14
Filename C:\Extracted\Mireille Mathieu\2001 - Grand Collection\14 - C'est A Mayerling.wav
Peak level 87.3 %
Track quality 100.0 %
Test CRC BFFAF606
Copy CRC BFFAF606
Copy OK
Track 15
Filename C:\Extracted\Mireille Mathieu\2001 - Grand Collection\15 - Toi Et Moi.wav
Peak level 85.9 %
Track quality 99.9 %
Test CRC C944A6A0
Copy CRC C944A6A0
Copy OK
Track 16
Filename C:\Extracted\Mireille Mathieu\2001 - Grand Collection\16 - Donne Ton Coeur Donne Ta Vie.wav
Peak level 66.2 %
Track quality 100.0 %
Test CRC FD7BABF3
Copy CRC FD7BABF3
Copy OK
No errors occured
End of status report
Правила, инструкции, FAQ!!!
Торрент  Добавлен [01 янв 2020, 22:51] Скачать торрент Магнет ссылка
Скачать торрент
[ Размер 13.38 КБ / Просмотров 5 ]

Статус
Проверен 
 
Размер  292.72 МБ
Приватный: Нет (DHT включён)
.torrent скачан  1
 


     Отправить личное сообщение
   
Страница 1 из 1
Показать сообщения за:  Поле сортировки  
Начать новую тему Ответить на тему


Сейчас этот форум просматривают: нет зарегистрированных пользователей и гости: 0


Вы не можете начинать темы
Вы не можете отвечать на сообщения
Вы не можете редактировать свои сообщения
Вы не можете удалять свои сообщения
Вы не можете добавлять вложения

Перейти:  
cron