Начать новую тему Ответить на тему
Статистика раздачи
Размер: 242.85 МБ | Добавлен: 18 окт 2020, 14:00 | Скачали: 0
Сидеров: 12  [0 байт/сек]    Личеров: 3  [0 байт/сек]
Пред. тема | След. тема 

Автор
Сообщение

СообщениеДобавлено: 18 окт 2020, 14:00 

Ответить с цитатой 


Жанр: Шансон
Носитель: Stream
Год издания: 2014
Страна исполнителя (группы): Нидерланды
Аудиокодек: FLAC (*.flac)
Тип рипа: tracks
Продолжительность: 37:11
Источник: Tidal
Наличие сканов в содержимом раздачи: нет
#77701. Prelude
02. Di Mame Iz Gegangen
03. Zakrytyj Grazhdanin
04. Tramway
05. Ots Tots
06. The Matter of Hygiene
07. Down In the Opium Den
08. Fartove yat (Limonchiki)
09. Solnzedar
Код:
foobar2000 1.3.19 / Замер динамического диапазона (DR) 1.1.1
Дата отчёта:  2020-10-18 09:55:46
--------------------------------------------------------------------------------
Анализ:   Alec Kopyt & Doolee Band / Brulliantovy
--------------------------------------------------------------------------------
DR         Пики         RMS           Продолжительность трека
--------------------------------------------------------------------------------
DR10      -4.32 дБ   -18.47 дБ      0:39 01-Prelude
DR8        0.00 дБ    -8.67 дБ      2:36 02-Di Mame Iz Gegangen
DR7        0.00 дБ    -8.59 дБ      6:01 03-Zakrytyj Grazhdanin
DR8       -0.16 дБ    -9.26 дБ      4:43 04-Tramway
DR8       -0.62 дБ    -9.88 дБ      3:07 05-Ots Tots
DR7       -0.19 дБ    -9.66 дБ      4:50 06-The Matter of Hygiene
DR11       0.00 дБ   -12.23 дБ      5:32 07-Down In the Opium Den
DR8       -0.11 дБ    -9.17 дБ      4:05 08-Fartove yat (Limonchiki)
DR9       -1.10 дБ   -11.73 дБ      5:37 09-Solnzedar
--------------------------------------------------------------------------------
Количество треков: 9
Реальные значения DR: DR8
Частота:   44100 Гц
Каналов:   2
Разрядность:   16
Битрейт:   865 кбит/с
Кодек:   FLAC
Код:
AUDIOCHECKER v2.0 beta (build 457) - by Dester - opdester@freemail.hu
~~~~~~~~~~~~~~~~~~~~~~~~~~~~~~~~~~
-=== DO NOT EDIT THIS FILE! ===-
Path: ...\Brulliantovy
001 -=- 01 Prelude.flac -=- CDDA (100%)
002 -=- 02 Di Mame Iz Gegangen.flac -=- CDDA (100%)
003 -=- 03 Zakrytyj Grazhdanin.flac -=- CDDA (100%)
004 -=- 04 Tramway.flac -=- CDDA (100%)
005 -=- 05 Ots Tots.flac -=- CDDA (100%)
006 -=- 06 The Matter of Hygiene.flac -=- CDDA (100%)
007 -=- 07 Down In the Opium Den.flac -=- CDDA (100%)
008 -=- 08 Fartove yat (Limonchiki).flac -=- CDDA (100%)
009 -=- 09 Solnzedar.flac -=- CDDA (100%)
Summary 100,00% CDDA
181707700
Алик Копыт родился в Одессе, в 1959 году. В ранней юности, работая подмастерьем мясника, он увлекся яркой музыкальной сценой, известной в городе в 70-х годах.
Правила, инструкции, FAQ!!!
Торрент  Добавлен [18 окт 2020, 14:00] Скачать торрент Магнет ссылка
Скачать торрент
[ Размер 20.4 КБ / Просмотров 13 ]

Статус
Проверен 
 
Размер  242.85 МБ
Приватный: Нет (DHT включён)
.torrent скачан  0
 


     Отправить личное сообщение
   
Страница 1 из 1
Показать сообщения за:  Поле сортировки  
Начать новую тему Ответить на тему


Сейчас этот форум просматривают: нет зарегистрированных пользователей и гости: 0


Вы не можете начинать темы
Вы не можете отвечать на сообщения
Вы не можете редактировать свои сообщения
Вы не можете удалять свои сообщения
Вы не можете добавлять вложения

Перейти:  
cron