Начать новую тему Ответить на тему
Статистика раздачи
Размер: 491.74 МБ | Добавлен: 26 мар 2019, 20:43 | Скачали: 1
Сидеров: 3  [0 байт/сек]    Личеров: 3  [0 байт/сек]
Пред. тема | След. тема 

Автор
Сообщение

СообщениеДобавлено: 26 мар 2019, 20:43 

Ответить с цитатой 

The Wurzels - Greatest Hits
Жанр: Scrumpy and western, pop-rock
Страна-производитель диска: UK
Год издания диска: 2007
Издатель (лейбл): EMI
Номер по каталогу: 393 9022
Страна: UK
Аудиокодек: FLAC (*.flac)
Тип рипа: tracks+.cue
Битрейт аудио: lossless
Продолжительность: 01:11:21
Источник (релизер): CD
Наличие сканов в содержимом раздачи: да
Треклист:
01. I Am A Cider Drinker 2007 (Paloma Blanca) With Tony Blackburn
02. The Combine Harvester (Brand New Key)
03. The Blackbird
04. Drink Drink Yer Zider Up
05. When The Common Market Comes To Stanton Drew
06. Don't Look Back In Anger
07. Ferry To Glastonbury
08. Farmer Bill's Cowman
09. Pill Pill
10. Ooh Arr Just A Little Bit
11. Morning Glory
12. Somerset Jigolo
13. Drink Up Thy Zider
14. I Am A Cider Drinker (Paloma Blanca)
15. Rock Around The A38
16. I've Got Me Beady Little Eye On Thee
17. Good Old Summerset
18. Why Does It Always Rain On Me
19. The Tractor Song (The Pushbike Song)
20. The Shepton Mallet Matador
21. The Combine Harvester (2001 Remix)
Код:
Exact Audio Copy V0.99 prebeta 5 from 4. May 2009
Отчёт EAC об извлечении, выполненном 28. октября 2011, 23:10
The Wurzels / 2007 - Greatest Hits
Дисковод: Optiarc DVD RW AD-5240S   Adapter: 3  ID: 1
Режим чтения                 : Достоверность
Использование точного потока : Да
Отключение кэша аудио        : Да
Использование указателей C2  : Нет
Коррекция смещения при чтении                     : 48
Способность читать области Lead-in и Lead-out     : Нет
Заполнение пропущенных сэмплов тишиной            : Да
Удаление блоков с тишиной в начале и конце        : Нет
При вычислениях CRC использовались нулевые сэмплы : Да
Интерфейс                                         : Встроенный Win32-интерфейс для Win NT/2000
Обработка зазоров                                 : Добавлено к предыдущему треку
Выходной формат          : Пользовательский кодировщик
Выбранный битрейт        : 768 kBit/s
Качество                 : Высокий
Добавление ID3-тэга      : Нет
Утилита сжатия           : L:\программы\Exact Audio Copy\FLAC\FLAC.EXE
Дополнительные параметры : -6 -V -T "ARTIST=%a" -T "TITLE=%t" -T "ALBUM=%g" -T "DATE=%y" -T "TRACKNUMBER=%n" -T "GENRE=%m" -T "COMMENT=%e" %s -o %d
TOC извлечённого CD
     Трек |   Старт  | Длительность | Начальный сектор | Конечный сектор
    ---------------------------------------------------------------------
       1  |  0:00.00 |    2:58.67   |           0      |      13416
       2  |  2:58.67 |    3:03.14   |       13417      |      27155
       3  |  6:02.06 |    3:13.08   |       27156      |      41638
       4  |  9:15.14 |    2:06.48   |       41639      |      51136
       5  | 11:21.62 |    3:57.14   |       51137      |      68925
       6  | 15:19.01 |    3:31.64   |       68926      |      84814
       7  | 18:50.65 |    3:46.45   |       84815      |     101809
       8  | 22:37.35 |    3:31.74   |      101810      |     117708
       9  | 26:09.34 |    3:38.67   |      117709      |     134125
      10  | 29:48.26 |    3:28.45   |      134126      |     149770
      11  | 33:16.71 |    2:48.69   |      149771      |     162439
      12  | 36:05.65 |    3:18.31   |      162440      |     177320
      13  | 39:24.21 |    3:19.56   |      177321      |     192301
      14  | 42:44.02 |    3:03.29   |      192302      |     206055
      15  | 45:47.31 |    3:22.43   |      206056      |     221248
      16  | 49:09.74 |    2:52.12   |      221249      |     234160
      17  | 52:02.11 |    4:18.55   |      234161      |     253565
      18  | 56:20.66 |    4:05.06   |      253566      |     271946
      19  | 60:25.72 |    2:26.70   |      271947      |     282966
      20  | 62:52.67 |    4:58.54   |      282967      |     305370
      21  | 67:51.46 |    3:25.49   |      305371      |     320794
Трек  1
     Имя файла L:\Новая папка\01. The Wurzels - I Am A Cider Drinker 2007 (Paloma Blanca) With Tony Blackburn.wav
     Длина предзазора  0:00:02.00
     Пиковый уровень 100.0 %
     Качество трека 100.0 %
     CRC теста 9087AAE4
     CRC копии 9087AAE4
     Трек не обнаружен в базе AccurateRip
     Копирование... OK
Трек  2
     Имя файла L:\Новая папка\02. The Wurzels - The Combine Harvester (Brand New Key).wav
     Длина предзазора  0:00:00.58
     Пиковый уровень 97.9 %
     Качество трека 100.0 %
     CRC теста 2E57D949
     CRC копии 2E57D949
     Трек не обнаружен в базе AccurateRip
     Копирование... OK
Трек  3
     Имя файла L:\Новая папка\03. The Wurzels - The Blackbird.wav
     Длина предзазора  0:00:00.67
     Пиковый уровень 97.9 %
     Качество трека 100.0 %
     CRC теста 3A262A27
     CRC копии 3A262A27
     Трек не обнаружен в базе AccurateRip
     Копирование... OK
Трек  4
     Имя файла L:\Новая папка\04. The Wurzels - Drink Drink Yer Zider Up.wav
     Длина предзазора  0:00:01.19
     Пиковый уровень 97.5 %
     Качество трека 100.0 %
     CRC теста 96F870E5
     CRC копии 96F870E5
     Трек не обнаружен в базе AccurateRip
     Копирование... OK
Трек  5
     Имя файла L:\Новая папка\05. The Wurzels - When The Common Market Comes To Stanton Drew.wav
     Длина предзазора  0:00:01.07
     Пиковый уровень 81.9 %
     Качество трека 100.0 %
     CRC теста 9856FF1D
     CRC копии 9856FF1D
     Трек не обнаружен в базе AccurateRip
     Копирование... OK
Трек  6
     Имя файла L:\Новая папка\06. The Wurzels - Don't Look Back In Anger.wav
     Длина предзазора  0:00:01.05
     Пиковый уровень 99.0 %
     Качество трека 99.9 %
     CRC теста 86E7EF26
     CRC копии 86E7EF26
     Трек не обнаружен в базе AccurateRip
     Копирование... OK
Трек  7
     Имя файла L:\Новая папка\07. The Wurzels - Ferry To Glastonbury.wav
     Длина предзазора  0:00:00.36
     Пиковый уровень 97.3 %
     Качество трека 100.0 %
     CRC теста CE4C9796
     CRC копии CE4C9796
     Трек не обнаружен в базе AccurateRip
     Копирование... OK
Трек  8
     Имя файла L:\Новая папка\08. The Wurzels - Farmer Bill's Cowman.wav
     Длина предзазора  0:00:00.36
     Пиковый уровень 99.8 %
     Качество трека 100.0 %
     CRC теста 2E5FC0D4
     CRC копии 2E5FC0D4
     Трек не обнаружен в базе AccurateRip
     Копирование... OK
Трек  9
     Имя файла L:\Новая папка\09. The Wurzels - Pill Pill.wav
     Длина предзазора  0:00:00.51
     Пиковый уровень 97.3 %
     Качество трека 100.0 %
     CRC теста 08449D23
     CRC копии 08449D23
     Трек не обнаружен в базе AccurateRip
     Копирование... OK
Трек 10
     Имя файла L:\Новая папка\10. The Wurzels - Ooh Arr Just A Little Bit.wav
     Длина предзазора  0:00:01.18
     Пиковый уровень 100.0 %
     Качество трека 100.0 %
     CRC теста F7AFBDBF
     CRC копии F7AFBDBF
     Трек не обнаружен в базе AccurateRip
     Копирование... OK
Трек 11
     Имя файла L:\Новая папка\11. The Wurzels - Morning Glory.wav
     Длина предзазора  0:00:01.20
     Пиковый уровень 99.8 %
     Качество трека 100.0 %
     CRC теста 81051446
     CRC копии 81051446
     Трек не обнаружен в базе AccurateRip
     Копирование... OK
Трек 12
     Имя файла L:\Новая папка\12. The Wurzels - Somerset Jigolo.wav
     Длина предзазора  0:00:01.14
     Пиковый уровень 98.1 %
     Качество трека 100.0 %
     CRC теста 42D33E78
     CRC копии 42D33E78
     Трек не обнаружен в базе AccurateRip
     Копирование... OK
Трек 13
     Имя файла L:\Новая папка\13. The Wurzels - Drink Up Thy Zider.wav
     Длина предзазора  0:00:00.59
     Пиковый уровень 97.9 %
     Качество трека 100.0 %
     CRC теста 4A28579B
     CRC копии 4A28579B
     Трек не обнаружен в базе AccurateRip
     Копирование... OK
Трек 14
     Имя файла L:\Новая папка\14. The Wurzels - I Am A Cider Drinker (Paloma Blanca).wav
     Длина предзазора  0:00:00.70
     Пиковый уровень 97.9 %
     Качество трека 100.0 %
     CRC теста 02F1B07D
     CRC копии 02F1B07D
     Трек не обнаружен в базе AccurateRip
     Копирование... OK
Трек 15
     Имя файла L:\Новая папка\15. The Wurzels - Rock Around The A38.wav
     Длина предзазора  0:00:00.70
     Пиковый уровень 83.4 %
     Качество трека 99.9 %
     CRC теста CD26ED6C
     CRC копии CD26ED6C
     Трек не обнаружен в базе AccurateRip
     Копирование... OK
Трек 16
     Имя файла L:\Новая папка\16. The Wurzels - I've Got Me Beady Little Eye On Thee.wav
     Длина предзазора  0:00:01.26
     Пиковый уровень 99.8 %
     Качество трека 100.0 %
     CRC теста C88FCE00
     CRC копии C88FCE00
     Трек не обнаружен в базе AccurateRip
     Копирование... OK
Трек 17
     Имя файла L:\Новая папка\17. The Wurzels - Good Old Summerset.wav
     Длина предзазора  0:00:01.14
     Пиковый уровень 83.1 %
     Качество трека 100.0 %
     CRC теста 928DF98C
     CRC копии 928DF98C
     Трек не обнаружен в базе AccurateRip
     Копирование... OK
Трек 18
     Имя файла L:\Новая папка\18. The Wurzels - Why Does It Always Rain On Me.wav
     Длина предзазора  0:00:00.71
     Пиковый уровень 84.1 %
     Качество трека 100.0 %
     CRC теста 41FB2268
     CRC копии 41FB2268
     Трек не обнаружен в базе AccurateRip
     Копирование... OK
Трек 19
     Имя файла L:\Новая папка\19. The Wurzels - The Tractor Song (The Pushbike Song).wav
     Длина предзазора  0:00:01.52
     Пиковый уровень 99.8 %
     Качество трека 100.0 %
     CRC теста 4AD7FC6C
     CRC копии 4AD7FC6C
     Трек не обнаружен в базе AccurateRip
     Копирование... OK
Трек 20
     Имя файла L:\Новая папка\20. The Wurzels - The Shepton Mallet Matador.wav
     Длина предзазора  0:00:01.06
     Пиковый уровень 81.9 %
     Качество трека 100.0 %
     CRC теста 3AFA9DF5
     CRC копии 3AFA9DF5
     Трек не обнаружен в базе AccurateRip
     Копирование... OK
Трек 21
     Имя файла L:\Новая папка\21. The Wurzels - The Combine Harvester (2001 Remix).wav
     Длина предзазора  0:00:01.16
     Пиковый уровень 99.9 %
     Качество трека 100.0 %
     CRC теста C21B778F
     CRC копии C21B778F
     Трек не обнаружен в базе AccurateRip
     Копирование... OK
Ни одного трека нет в базе AccurateRip
Ошибок не произошло
Конец отчёта
Код:
REM GENRE Folk
REM DATE 2007
REM DISCID 4410B515
REM COMMENT "ExactAudioCopy v0.99pb5"
CATALOG 0094639390229
PERFORMER "The Wurzels"
TITLE "2007 - Greatest Hits"
FILE "01. The Wurzels - I Am A Cider Drinker 2007 (Paloma Blanca) With Tony Blackburn.wav" WAVE
  TRACK 01 AUDIO
    TITLE "I Am A Cider Drinker 2007 (Paloma Blanca) With Tony Blackburn"
    PERFORMER "The Wurzels"
    ISRC GBAYE0700727
    INDEX 01 00:00:00
  TRACK 02 AUDIO
    TITLE "The Combine Harvester (Brand New Key)"
    PERFORMER "The Wurzels"
    ISRC GBAYE7600233
    INDEX 00 02:58:09
FILE "02. The Wurzels - The Combine Harvester (Brand New Key).wav" WAVE
    INDEX 01 00:00:00
  TRACK 03 AUDIO
    TITLE "The Blackbird"
    PERFORMER "The Wurzels"
    ISRC GBAYE7600189
    INDEX 00 03:02:22
FILE "03. The Wurzels - The Blackbird.wav" WAVE
    INDEX 01 00:00:00
  TRACK 04 AUDIO
    TITLE "Drink Drink Yer Zider Up"
    PERFORMER "The Wurzels"
    ISRC GBAYE7700228
    INDEX 00 03:11:64
FILE "04. The Wurzels - Drink Drink Yer Zider Up.wav" WAVE
    INDEX 01 00:00:00
  TRACK 05 AUDIO
    TITLE "When The Common Market Comes To Stanton Drew"
    PERFORMER "The Wurzels"
    ISRC GB01A0700575
    INDEX 00 02:05:41
FILE "05. The Wurzels - When The Common Market Comes To Stanton Drew.wav" WAVE
    INDEX 01 00:00:00
  TRACK 06 AUDIO
    TITLE "Don't Look Back In Anger"
    PERFORMER "The Wurzels"
    ISRC GB01A0700577
    INDEX 00 03:56:09
FILE "06. The Wurzels - Don't Look Back In Anger.wav" WAVE
    INDEX 01 00:00:00
  TRACK 07 AUDIO
    TITLE "Ferry To Glastonbury"
    PERFORMER "The Wurzels"
    ISRC GB01A0700576
    INDEX 00 03:31:28
FILE "07. The Wurzels - Ferry To Glastonbury.wav" WAVE
    INDEX 01 00:00:00
  TRACK 08 AUDIO
    TITLE "Farmer Bill's Cowman"
    PERFORMER "The Wurzels"
    ISRC GBAYE7200238
    INDEX 00 03:46:09
FILE "08. The Wurzels - Farmer Bill's Cowman.wav" WAVE
    INDEX 01 00:00:00
  TRACK 09 AUDIO
    TITLE "Pill Pill"
    PERFORMER "The Wurzels"
    ISRC GB01A0700578
    INDEX 00 03:31:23
FILE "09. The Wurzels - Pill Pill.wav" WAVE
    INDEX 01 00:00:00
  TRACK 10 AUDIO
    TITLE "Ooh Arr Just A Little Bit"
    PERFORMER "The Wurzels"
    ISRC GB01A0700579
    INDEX 00 03:37:49
FILE "10. The Wurzels - Ooh Arr Just A Little Bit.wav" WAVE
    INDEX 01 00:00:00
  TRACK 11 AUDIO
    TITLE "Morning Glory"
    PERFORMER "The Wurzels"
    ISRC GBAYE7300208
    INDEX 00 03:27:25
FILE "11. The Wurzels - Morning Glory.wav" WAVE
    INDEX 01 00:00:00
  TRACK 12 AUDIO
    TITLE "Somerset Jigolo"
    PERFORMER "The Wurzels"
    ISRC GBAYE0701201
    INDEX 00 02:47:55
FILE "12. The Wurzels - Somerset Jigolo.wav" WAVE
    INDEX 01 00:00:00
  TRACK 13 AUDIO
    TITLE "Drink Up Thy Zider"
    PERFORMER "The Wurzels"
    ISRC GBAYE6700354
    INDEX 00 03:17:47
FILE "13. The Wurzels - Drink Up Thy Zider.wav" WAVE
    INDEX 01 00:00:00
  TRACK 14 AUDIO
    TITLE "I Am A Cider Drinker (Paloma Blanca)"
    PERFORMER "The Wurzels"
    ISRC GBAYE7600186
    INDEX 00 03:18:61
FILE "14. The Wurzels - I Am A Cider Drinker (Paloma Blanca).wav" WAVE
    INDEX 01 00:00:00
  TRACK 15 AUDIO
    TITLE "Rock Around The A38"
    PERFORMER "The Wurzels"
    ISRC GB01A0700580
    INDEX 00 03:02:34
FILE "15. The Wurzels - Rock Around The A38.wav" WAVE
    INDEX 01 00:00:00
  TRACK 16 AUDIO
    TITLE "I've Got Me Beady Little Eye On Thee"
    PERFORMER "The Wurzels"
    ISRC GBAYE7800321
    INDEX 00 03:21:17
FILE "16. The Wurzels - I've Got Me Beady Little Eye On Thee.wav" WAVE
    INDEX 01 00:00:00
  TRACK 17 AUDIO
    TITLE "Good Old Summerset"
    PERFORMER "The Wurzels"
    ISRC GB01A0700581
    INDEX 00 02:50:73
FILE "17. The Wurzels - Good Old Summerset.wav" WAVE
    INDEX 01 00:00:00
  TRACK 18 AUDIO
    TITLE "Why Does It Always Rain On Me"
    PERFORMER "The Wurzels"
    ISRC GB01A0700583
    INDEX 00 04:17:59
FILE "18. The Wurzels - Why Does It Always Rain On Me.wav" WAVE
    INDEX 01 00:00:00
  TRACK 19 AUDIO
    TITLE "The Tractor Song (The Pushbike Song)"
    PERFORMER "The Wurzels"
    ISRC GBAYE7800362
    INDEX 00 04:03:29
FILE "19. The Wurzels - The Tractor Song (The Pushbike Song).wav" WAVE
    INDEX 01 00:00:00
  TRACK 20 AUDIO
    TITLE "The Shepton Mallet Matador"
    PERFORMER "The Wurzels"
    ISRC GB01A0700582
    INDEX 00 02:25:64
FILE "20. The Wurzels - The Shepton Mallet Matador.wav" WAVE
    INDEX 01 00:00:00
  TRACK 21 AUDIO
    TITLE "The Combine Harvester (2001 Remix)"
    PERFORMER "The Wurzels"
    ISRC GBAYE0100554
    INDEX 00 04:57:38
FILE "21. The Wurzels - The Combine Harvester (2001 Remix).wav" WAVE
    INDEX 01 00:00:00
Правила, инструкции, FAQ!!!
Торрент  Добавлен [26 мар 2019, 20:43] Скачать торрент Магнет ссылка
Скачать торрент
[ Размер 42.38 КБ / Просмотров 9 ]

Статус
Проверен 
 
Размер  491.74 МБ
Приватный: Нет (DHT включён)
.torrent скачан  1
 


     Отправить личное сообщение
   
Страница 1 из 1
Показать сообщения за:  Поле сортировки  
Начать новую тему Ответить на тему


Сейчас этот форум просматривают: нет зарегистрированных пользователей и гости: 0


Вы не можете начинать темы
Вы не можете отвечать на сообщения
Вы не можете редактировать свои сообщения
Вы не можете удалять свои сообщения
Вы не можете добавлять вложения

Перейти:  
cron