Начать новую тему Ответить на тему
Статистика раздачи
Размер: 4.42 ГБ | Добавлен: 05 июн 2020, 22:37 | Скачали: 0
Сидеров: 1  [0 байт/сек]    Личеров: 0  [0 байт/сек]
Пред. тема | След. тема 

Автор
Сообщение

СообщениеДобавлено: 05 июн 2020, 22:37 

Ответить с цитатой 

Rossini - Le Comte Ory/Россини - Граф Ори [Florez, Damrau, DiDonato, Pertusi Benini]
Год выпуска: 09.04.2011
Лейбл: The Metropolitan Opera
Страна-производитель: USA
Жанр: Opera
Продолжительность: 02:23:02
Язык: Французский
Перевод: Нет
Субтитры: Английский [hardsub (неотключаемые)]
Режиссер/Хореограф: Bartlett Sher
Исполнители:
Count Ory - Juan Diego Flórez
Countess Adèle - Diana Damrau
Isolier - Joyce DiDonato
Raimbaud - Stéphane Degout
Tutor - Michele Pertusi
Alice - Monica Yunus
Ragonde - Susanne Resmark
Courtier - Tony Stevenson
Courtier - Tyler Simpson
Prompter - Rob Besserer
Conductor: Maurizio Benini
Metropolitan Opera House
April 9, 2011 Matinee
Описание:
В премьерном показе на сцене Метрополитен-опера комедии Россини с ее виртуозным блеском вокальных партий блистает сенсация bel canto Хуан Диего Флорес. Он соперничает с переодетой в мужское платье и изображающей пажа Изолье меццо-сопрано Джойс Дидонато ради любви одинокой графини Адель, партию которой исполняет колоратурное сопрано Диана Дамрау. Вот как pежиссер Бартлетт Шер, поставивший на сцене Метрополитен-опера такие шедевры, как «Севильский цирюльник» и «Сказки Гофмана», описывает мир графа Ори: «… это место, где любовь чревата опасностями. Это может создавать как и очень смешные, так и весьма болезненные ситуации». Россини воплощает оба типа положений, в обоих случаях насыщая их прекраснейшей музыкой, может быть наиболее восхитительной во всем его творчестве».
ГРАФ ОРИ (Le comte Ory) — [комическая] опера Дж. Россини в 2 д., либретто Э. Скриба и Ш. Г. Делетр-Пуарсона по их одноименному водевилю. Премьера: Париж, Королевская академия музыки, 20 августа 1828 г.; на русской сцене — Петербург, 1838 г. (А. Петрова — паж Изолье).
В основе сюжета — «Старинная пикардийская легенда» П. А. де ла Пласа. Действие оперы перенесено в Турень и происходит в начале XIII в. Брат графини Аделн де Формутье отправился в крестовый поход, она сама дала обет хранить целомудрие. Вход в ее замок недоступен для волокит-кавалеров. Легкомысленный и распутный граф Ори решил во что бы то ни стало туда проникнуть. В одежде отшельника он поселился близ замка, и к нему за советами и наставлениями идут местные крестьяне. Приходит к «отшельнику» и его паж Изолье — кузен графини, влюбленный в красавицу и просящий «отшельника» о помощи, и сама графиня, в чьем сердце борется любовь к пажу и верность данному ею слову. Узнав Ори, она в страхе убегает. Граф решает проникнуть в замок, переодевшись странницей. В непогоду он и его спутники, все в женских одеждах, просят приюта на ночь. Графиня велит их впустить. Ночью Ори хочет пройти в ее комнату, но паж предупреждает госпожу о том, кто скрывается в облике странницы. Ничего не подозревающий граф в темноте обнимает и целует пажа. Входят слуги с зажженными факелами, и пристыженный волокита покидает замок. Графиня радостно приветствует возвращение брата и других крестоносцев.
«Граф Ори» (в этой партитуре частично использована музыка ранней оперы Россини «Путешествие в Реймс») — одно из лучших произведений композитора по богатству мелодий, остроумию, тонкости и изяществу. Бурлеск сочетается с лирикой, жанровые сцены (попойка мнимых странниц в замке, прячущих вино при появлении графини) — с романтическим колоритом.
Во второй половине XX века опера исполнялась на фестивалях «Флорентийский музыкальный май» (1952) и в Глайндборне (четыре раза, в 1954-1957 гг.), в миланском театре «Ла пиккола Скала» (1958), в нью-йоркской «Метрополитен-опера» (1977, Р. Блейк — граф Ори) и на фестивале в Пезаро, родном городе Россини (2004). Одной из лучших исполнительниц партии пажа Изолье признана Т. Берганса.
А. Гозенпуд
Качество видео: HDTVRip
Формат/Контейнер: MKV
Видео кодек: H.264
Аудио кодек: AC3
Видео поток: 3 956 Kbps, 1280*720 (16:9), at 29.970 fps (Progressive), AVC (High@L4.0) (CABAC / 8 Ref Frames)
Аудио поток: 384 Kbps, 48.0 KHz, 16 bits, 6 channels, AC-3, mono (добавлено /GFox)
General
Unique ID : 174577182886136157717482571500415576364 (0x835657A85C200BFAA38FDBBA6033692C)
Complete name : D:\Torrent\Rossini - Le Comte Ory - Florez, Damrau, DiDonato, Degout, Pertusi - Benini Met 2011.mkv
Format : Matroska
Format version : Version 2
File size : 4.42 GiB
Duration : 2h 23mn
Overall bit rate : 4 428 Kbps
Encoded date : UTC 2011-07-25 20:32:35
Writing application : mkvmerge v4.7.0 ('Just Like You Imagined') built on Apr 21 2011 01:13:14
Writing library : libebml v1.2.0 + libmatroska v1.1.0
Video
ID : 1
Format : AVC
Format/Info : Advanced Video Codec
Format profile : High@L4.0
Format settings, CABAC : Yes
Format settings, ReFrames : 8 frames
Codec ID : V_MPEG4/ISO/AVC
Duration : 2h 23mn
Bit rate : 3 956 Kbps
Width : 1 280 pixels
Height : 720 pixels
Display aspect ratio : 16:9
Frame rate : 29.970 fps
Color space : YUV
Chroma subsampling : 4:2:0
Bit depth : 8 bits
Scan type : Progressive
Bits/(Pixel*Frame) : 0.143
Stream size : 3.95 GiB (89%)
Writing library : x264 core 115 r1995 c1e60b9
Encoding settings : cabac=1 / ref=8 / deblock=1:-1:-1 / analyse=0x3:0x133 / me=umh / subme=9 / psy=1 / psy_rd=1.00:0.15 / mixed_ref=1 / me_range=16 / chroma_me=1 / trellis=2 / 8x8dct=1 / cqm=0 / deadzone=21,11 / fast_pskip=1 / chroma_qp_offset=-3 / threads=3 / sliced_threads=0 / nr=0 / decimate=1 / interlaced=0 / bluray_compat=0 / constrained_intra=0 / bframes=3 / b_pyramid=2 / b_adapt=2 / b_bias=0 / direct=3 / weightb=1 / open_gop=0 / weightp=2 / keyint=250 / keyint_min=25 / scenecut=40 / intra_refresh=0 / rc_lookahead=60 / rc=crf / mbtree=1 / crf=19.0 / qcomp=0.60 / qpmin=0 / qpmax=69 / qpstep=4 / ip_ratio=1.40 / aq=1:1.00
Audio
ID : 2
Format : AC-3
Format/Info : Audio Coding 3
Mode extension : CM (complete main)
Codec ID : A_AC3
Duration : 2h 23mn
Bit rate mode : Constant
Bit rate : 384 Kbps
Channel(s) : 6 channels
Channel positions : Front: L C R, Side: L R, LFE
Sampling rate : 48.0 KHz
Bit depth : 16 bits
Compression mode : Lossy
Delay relative to video : 70ms
Stream size : 393 MiB (9%)
Language : English
Правила, инструкции, FAQ!!!
Торрент  Добавлен [05 июн 2020, 22:37] Скачать торрент Магнет ссылка
Скачать торрент
[ Размер 22.63 КБ / Просмотров 6 ]

Статус
Проверен 
 
Размер  4.42 ГБ
Приватный: Нет (DHT включён)
.torrent скачан  0
 


     Отправить личное сообщение
   
Страница 1 из 1
Показать сообщения за:  Поле сортировки  
Начать новую тему Ответить на тему


Сейчас этот форум просматривают: нет зарегистрированных пользователей и гости: 0


Вы не можете начинать темы
Вы не можете отвечать на сообщения
Вы не можете редактировать свои сообщения
Вы не можете удалять свои сообщения
Вы не можете добавлять вложения

Перейти:  
cron