Начать новую тему Ответить на тему
Статистика раздачи
Размер: 1.38 ГБ | Добавлен: 05 июн 2020, 22:38 | Скачали: 0
Сидеров: 0  [0 байт/сек]    Личеров: 0  [0 байт/сек]
Пред. тема | След. тема 

Автор
Сообщение

СообщениеДобавлено: 05 июн 2020, 22:38 

Ответить с цитатой 

Россини - Брачный вексель / Rossini - La cambiale di matrimonio
Год выпуска: 2012
Лейбл: Vienna Chamber Opera
Страна-производитель: Австрия
Жанр: Opera-buffa
Продолжительность: 01:20:20
Язык: Итальянский
Перевод: Без перевода
Субтитры: Нет
Режиссер/Хореограф: Jacopo Spirei
Исполнители:
Tobia Mill - Igor Bakan
Fanni Mill - Anna Maria Sarra
Edoardo Milfort - Andrew Owens
Slook - Ben Connor
Clarina - Gaia Petrone
Norton - Oleg Loza
Wiener Kammer Orchester
Conduclor - Konstantin Chudosky
Описание: Одноактная комическая опера Россини "Брачный вексель".
Theater an der Wien in the Vienna Chamber Opera
21 октября 2012
Качество видео: WEBRip
Формат/Контейнер: MPEG4
Видео кодек: AVC
Аудио кодек: AAC
Видео поток: AVC 1280x720 16:9 25 кадров/сек 2300 Кбит/сек
Аудио поток: AAC 2 канала 44,1 КГц 158 Кбит/сек
Общее
Полное имя : LA CAMBIALE DI MATRIMONIO 2012.mp4
Формат : MPEG-4
Профиль формата : Base Media / Version 2
Идентификатор кодека : mp42
Размер файла : 1,38 Гбайт
Продолжительность : 1 ч. 20 м.
Режим общего битрейта : Переменный
Общий поток : 2460 Кбит/сек
Дата кодирования : UTC 2012-10-31 17:40:17
Дата пометки : UTC 2012-10-31 17:40:17
Примечание : Скачано при помощи Replay Media Catcher 4 - www.applian.com
Видео
Идентификатор : 1
Формат : AVC
Формат/Информация : Advanced Video Codec
Профиль формата : High@L3.1
Параметр CABAC формата : Да
Параметр ReFrames формата : 4 кадра
Идентификатор кодека : avc1
Идентификатор кодека/Информация : Advanced Video Coding
Продолжительность : 1 ч. 20 м.
Битрейт : 2300 Кбит/сек
Ширина : 1280 пикселей
Высота : 720 пикселей
Соотношение сторон : 16:9
Режим частоты кадров : Постоянный
Частота кадров : 25,000 кадров/сек
Цветовое пространство : YUV
Субдискретизация насыщенности : 4:2:0
Битовая глубина : 8 бит
Тип развёртки : Прогрессивная
Бит/(Пиксели*Кадры) : 0.100
Размер потока : 1,29 Гбайт (93%)
Библиотека кодирования : x264 core 128 r2216 198a7ea
Настройки программы : cabac=1 / ref=3 / deblock=1:0:0 / analyse=0x3:0x113 / me=hex / subme=7 / psy=1 / psy_rd=1.00:0.00 / mixed_ref=1 / me_range=16 / chroma_me=1 / trellis=1 / 8x8dct=1 / cqm=0 / deadzone=21,11 / fast_pskip=1 / chroma_qp_offset=-2 / threads=12 / lookahead_threads=2 / sliced_threads=0 / nr=0 / decimate=1 / interlaced=0 / bluray_compat=0 / constrained_intra=0 / bframes=3 / b_pyramid=2 / b_adapt=1 / b_bias=0 / direct=1 / weightb=1 / open_gop=0 / weightp=2 / keyint=75 / keyint_min=25 / scenecut=40 / intra_refresh=0 / rc_lookahead=40 / rc=2pass / mbtree=1 / bitrate=2300 / ratetol=1.0 / qcomp=0.60 / qpmin=5 / qpmax=69 / qpstep=4 / cplxblur=20.0 / qblur=0.5 / vbv_maxrate=3750 / vbv_bufsize=12500 / nal_hrd=none / ip_ratio=1.40 / aq=1:1.00
Дата кодирования : UTC 2012-10-31 17:40:17
Дата пометки : UTC 2012-10-31 17:40:17
Аудио
Идентификатор : 2
Формат : AAC
Формат/Информация : Advanced Audio Codec
Профиль формата : LC
Идентификатор кодека : 40
Продолжительность : 1 ч. 20 м.
Продолжительность оригинала : 1 ч. 20 м.
Вид битрейта : Переменный
Битрейт : 158 Кбит/сек
Каналы : 2 канала
Расположение каналов : Front: L R
Частота : 44,1 КГц
Метод сжатия : С потерями
Размер потока : 90,6 Мбайт (6%)
Размер потока оригинала : 90,6 Мбайт (6%)
Дата кодирования : UTC 2012-10-31 17:40:17
Дата пометки : UTC 2012-10-31 17:40:17



Правила, инструкции, FAQ!!!
Торрент  Добавлен [05 июн 2020, 22:38] Скачать торрент Магнет ссылка
Скачать торрент
[ Размер 14.34 КБ / Просмотров 8 ]

Статус
Проверен 
 
Размер  1.38 ГБ
Приватный: Нет (DHT включён)
.torrent скачан  0
 


     Отправить личное сообщение
   
Страница 1 из 1
Показать сообщения за:  Поле сортировки  
Начать новую тему Ответить на тему


Сейчас этот форум просматривают: нет зарегистрированных пользователей и гости: 0


Вы не можете начинать темы
Вы не можете отвечать на сообщения
Вы не можете редактировать свои сообщения
Вы не можете удалять свои сообщения
Вы не можете добавлять вложения

Перейти:  
cron