Начать новую тему Ответить на тему
Статистика раздачи
Размер: 483.52 МБ | Добавлен: 26 мар 2019, 20:09 | Скачали: 2
Сидеров: 2  [0 байт/сек]    Личеров: 0  [0 байт/сек]
Пред. тема | След. тема 

Автор
Сообщение

СообщениеДобавлено: 26 мар 2019, 20:09 

Ответить с цитатой 

Rockets - Disco Legend
Жанр: Рор/Electropop
Год выпуска диска: ?
Производитель диска: Россия P&C DREAMSOUND
Аудио кодек: FLAC
Тип рипа: image+.cue
Битрейт аудио: lossless
Продолжительность: 78.53
Трэклист:
01. Betta gamma (Intro)
02. On the road again (New live version)
03. Galactica (New version)
04. Future woman (Love on the Radio-Brahma - New version)
05. Star vision
06. Run to the stars
07. Future game
08. Electric delight
09. Back to your planet
10. Future woman (Original version)
11. If you drive
12. Atomic
13. Some other place, some other time
14. Under the sun
15. Galactica (Original version)
16. Count Down
17. Radiate
18. Medley
Exact Audio Copy V0.99 prebeta 4 from 23. January 2008
Отчёт EAC об извлечении, выполненном 11. мая 2009, 21:55
Rockets / Disco Legend
Дисковод: HL-DT-STDVDRAM GSA-H62N Adapter: 3 ID: 0
Режим чтения : Достоверность
Использование точного потока : Да
Отключение кэша аудио : Да
Использование указателей C2 : Нет
Коррекция смещения при чтении : 667
Способность читать области Lead-in и Lead-out : Нет
Заполнение пропущенных сэмплов тишиной : Да
Удаление блоков с тишиной в начале и конце : Нет
При вычислениях CRC использовались нулевые сэмплы : Да
Интерфейс : Установленный внешний ASPI-интерфейс
Выходной формат : Пользовательский кодировщик
Выбранный битрейт : 768 kBit/s
Качество : Высокий
Добавление ID3-тэга : Нет
Утилита сжатия : C:\Program Files\Exact Audio Copy\FLAC\FLAC.EXE
Дополнительные параметры : -6 -V -T "ARTIST=%a" -T "TITLE=%t" -T "ALBUM=%g" -T "DATE=%y" -T "TRACKNUMBER=%n" -T "GENRE=%m" -T "COMMENT=%e" %s -o %d
TOC извлечённого CD
Трек | Старт | Длительность | Начальный сектор | Конечный сектор
---------------------------------------------------------------------
1 | 0:00.01 | 1:05.70 | 1 | 4945
2 | 1:05.71 | 4:51.19 | 4946 | 26789
3 | 5:57.15 | 4:24.54 | 26790 | 46643
4 | 10:21.69 | 4:04.52 | 46644 | 64995
5 | 14:26.46 | 5:50.73 | 64996 | 91318
6 | 20:17.44 | 4:38.02 | 91319 | 112170
7 | 24:55.46 | 4:55.54 | 112171 | 134349
8 | 29:51.25 | 4:38.60 | 134350 | 155259
9 | 34:30.10 | 3:55.43 | 155260 | 172927
10 | 38:25.53 | 3:45.07 | 172928 | 189809
11 | 42:10.60 | 4:45.12 | 189810 | 211196
12 | 46:55.72 | 4:06.39 | 211197 | 229685
13 | 51:02.36 | 6:20.67 | 229686 | 258252
14 | 57:23.28 | 4:30.28 | 258253 | 278530
15 | 61:53.56 | 4:33.02 | 278531 | 299007
16 | 66:26.58 | 5:10.71 | 299008 | 322328
17 | 71:37.54 | 4:43.22 | 322329 | 343575
18 | 76:21.01 | 2:31.67 | 343576 | 354967
Характеристики диапазона извлечения и сообщения об ошибках
Выбранный диапазон
Имя файла E:\Мультимедиа\Музыка\Музыка Lossless\Rockets - Disco Legend\Rockets - Disco Legend.wav
Пиковый уровень 100.0 %
Качество диапазона 99.9 %
CRC копии 15281F49
Копирование... OK
Ошибок не произошло
AccurateRip: сводка
Трек 1 точное извлечение (доверие 1) [AD8C4262]
Трек 2 точное извлечение (доверие 1) [15855366]
Трек 3 точное извлечение (доверие 1) [6AE22262]
Трек 4 точное извлечение (доверие 1) [8BE5CF1D]
Трек 5 точное извлечение (доверие 1) [E703EDC8]
Трек 6 точное извлечение (доверие 1) [ADB43313]
Трек 7 точное извлечение (доверие 1) [737281DB]
Трек 8 точное извлечение (доверие 1) [1FCAF4A3]
Трек 9 точное извлечение (доверие 1) [FB9C6ABD]
Трек 10 точное извлечение (доверие 1) [1DBE0DBD]
Трек 11 точное извлечение (доверие 1) [27F6FF79]
Трек 12 точное извлечение (доверие 1) [368E41F8]
Трек 13 точное извлечение (доверие 1) [07585936]
Трек 14 точное извлечение (доверие 1) [C47CE9DF]
Трек 15 точное извлечение (доверие 1) [BCDAE67C]
Трек 16 точное извлечение (доверие 1) [4696E37F]
Трек 17 точное извлечение (доверие 1) [CAC9EC2C]
Трек 18 точность не определена (достоверность 1) [3564E268], AccurateRip вернул [65081850]
17 трек(и) скопированы точно
1 трек(и) не удалось проверить на точность
Некоторые треки не прошли проверку на точность
Конец отчёта

Буду благодарен за отзывы и спасибки
Правила, инструкции, FAQ!!!
Торрент  Добавлен [26 мар 2019, 20:09] Скачать торрент Магнет ссылка
Скачать торрент
[ Размер 19.88 КБ / Просмотров 9 ]

Статус
Проверен 
 
Размер  483.52 МБ
Приватный: Нет (DHT включён)
.torrent скачан  2
 


     Отправить личное сообщение
   
Страница 1 из 1
Показать сообщения за:  Поле сортировки  
Начать новую тему Ответить на тему


Сейчас этот форум просматривают: нет зарегистрированных пользователей и гости: 0


Вы не можете начинать темы
Вы не можете отвечать на сообщения
Вы не можете редактировать свои сообщения
Вы не можете удалять свои сообщения
Вы не можете добавлять вложения

Перейти:  
cron