Начать новую тему Ответить на тему
Статистика раздачи
Размер: 413.8 МБ | Добавлен: 01 янв 2020, 22:59 | Скачали: 0
Сидеров: 1  [0 байт/сек]    Личеров: 0  [0 байт/сек]
Пред. тема | След. тема 

Автор
Сообщение

СообщениеДобавлено: 01 янв 2020, 22:59 

Ответить с цитатой 

Dalida - Revolution
Жанр: рор
Год выпуска диска: 2001
Производитель диска: Швеция
Аудио кодек: APE
Тип рипа: image+.cue
Битрейт аудио: lossless
Продолжительность: 1.03.56

Огромная просьба не уходить с раздачи
Трэклист
01. Laissez-moi danser (by Cerrone)
02. Le temps des fleurs
03. Americana
04. Ci sono fiori
05. Petit homme
06. Remember... c'etait loin
07. Ciao amore ciao
08. J'attendrai
09. Dans la ville endormie
10. Les couleurs de l'amour
11. Besame mucho
12. Rio do Brazil
13. Pour en arriver lа
14. Dali'n love
Exact Audio Copy V0.99 prebeta 4 from 23. January 2008
Отчёт EAC об извлечении, выполненном 20. мая 2009, 20:45
Dalida / Revolution
Дисковод: Optiarc DVD RW AD-7173S Adapter: 2 ID: 0
Режим чтения : Достоверность
Использование точного потока : Да
Отключение кэша аудио : Да
Использование указателей C2 : Нет
Коррекция смещения при чтении : 48
Способность читать области Lead-in и Lead-out : Нет
Заполнение пропущенных сэмплов тишиной : Да
Удаление блоков с тишиной в начале и конце : Нет
При вычислениях CRC использовались нулевые сэмплы : Да
Интерфейс : Установленный внешний ASPI-интерфейс
Выходной формат : Внутренние WAV-операции
Формат сэмплов : 44.100 Гц; 16 бит; стерео
TOC извлечённого CD
Трек | Старт | Длительность | Начальный сектор | Конечный сектор
---------------------------------------------------------------------
1 | 0:00.00 | 3:57.05 | 0 | 17779
2 | 3:57.05 | 4:10.63 | 17780 | 36592
3 | 8:07.68 | 5:31.61 | 36593 | 61478
4 | 13:39.54 | 3:33.31 | 61479 | 77484
5 | 17:13.10 | 5:00.72 | 77485 | 100056
6 | 22:14.07 | 6:02.18 | 100057 | 127224
7 | 28:16.25 | 5:02.47 | 127225 | 149921
8 | 33:18.72 | 4:30.25 | 149922 | 170196
9 | 37:49.22 | 3:34.49 | 170197 | 186295
10 | 41:23.71 | 3:28.74 | 186296 | 201969
11 | 44:52.70 | 5:22.54 | 201970 | 226173
12 | 50:15.49 | 5:34.61 | 226174 | 251284
13 | 55:50.35 | 4:01.09 | 251285 | 269368
14 | 59:51.44 | 4:04.44 | 269369 | 287712
Характеристики диапазона извлечения и сообщения об ошибках
Выбранный диапазон
Имя файла C:\Users\maestro\Desktop\Dalida - Revolution.wav
Пиковый уровень 99.9 %
Качество диапазона 99.8 %
CRC копии ECD1935A
Копирование... OK
Ошибок не произошло
AccurateRip: сводка
Трек 1 нет в базе данных
Трек 2 нет в базе данных
Трек 3 нет в базе данных
Трек 4 нет в базе данных
Трек 5 нет в базе данных
Трек 6 нет в базе данных
Трек 7 нет в базе данных
Трек 8 нет в базе данных
Трек 9 нет в базе данных
Трек 10 нет в базе данных
Трек 11 нет в базе данных
Трек 12 нет в базе данных
Трек 13 нет в базе данных
Трек 14 нет в базе данных
Ни одного трека нет в базе AccurateRip
Конец отчёта



Правила, инструкции, FAQ!!!
Торрент  Добавлен [01 янв 2020, 22:59] Скачать торрент Магнет ссылка
Скачать торрент
[ Размер 16.9 КБ / Просмотров 1 ]

Статус
Проверен 
 
Размер  413.8 МБ
Приватный: Нет (DHT включён)
.torrent скачан  0
 


     Отправить личное сообщение
   
Страница 1 из 1
Показать сообщения за:  Поле сортировки  
Начать новую тему Ответить на тему


Сейчас этот форум просматривают: нет зарегистрированных пользователей и гости: 0


Вы не можете начинать темы
Вы не можете отвечать на сообщения
Вы не можете редактировать свои сообщения
Вы не можете удалять свои сообщения
Вы не можете добавлять вложения

Перейти:  
cron