Начать новую тему Ответить на тему
Статистика раздачи
Размер: 530.09 МБ | Добавлен: 01 янв 2020, 23:04 | Скачали: 0
Сидеров: 0  [0 байт/сек]    Личеров: 0  [0 байт/сек]
Пред. тема | След. тема 

Автор
Сообщение

СообщениеДобавлено: 01 янв 2020, 23:04 

Ответить с цитатой 

Dalida - Music Box
Жанр: рор
Год выпуска диска: 2004
Производитель диска: Россия
Аудио кодек: APE
Тип рипа: image+.cue
Битрейт аудио: lossless
Продолжительность: 1.19.53.

Огромная просьба не уходить с раздачи
01. Femme (Smile)
02. Soleil Soleil
03. Darla Dirladada
04. Laisser-Moi Dancer
05. Besame Mucho
06. Tico Tico
07. Gitano,Gitano
08. Le Temps D'Amer
09. Io T'Amero
10. Pour en Arriver La
11. Petit Homme
12. Mourir Sur Scene
13. Mamy Blue
14. Paroles,Paroles
15. Voila Pourquoi Je Chante
16. Les Hommes De Ma Vie
17. Quelli Erano Giorni
18. O Sole Mio
19. Nostalgies
20. Pour Te Dire Je T'Aime
Exact Audio Copy V0.99 prebeta 4 from 23. January 2008
Отчёт EAC об извлечении, выполненном 20. мая 2009, 21:53
Dalida / Music Box
Дисковод: Optiarc DVD RW AD-7173S Adapter: 2 ID: 0
Режим чтения : Достоверность
Использование точного потока : Да
Отключение кэша аудио : Да
Использование указателей C2 : Нет
Коррекция смещения при чтении : 48
Способность читать области Lead-in и Lead-out : Нет
Заполнение пропущенных сэмплов тишиной : Да
Удаление блоков с тишиной в начале и конце : Нет
При вычислениях CRC использовались нулевые сэмплы : Да
Интерфейс : Установленный внешний ASPI-интерфейс
Выходной формат : Внутренние WAV-операции
Формат сэмплов : 44.100 Гц; 16 бит; стерео
TOC извлечённого CD
Трек | Старт | Длительность | Начальный сектор | Конечный сектор
---------------------------------------------------------------------
1 | 0:00.00 | 4:35.04 | 0 | 20628
2 | 4:35.04 | 4:03.51 | 20629 | 38904
3 | 8:38.55 | 4:08.15 | 38905 | 57519
4 | 12:46.70 | 4:51.70 | 57520 | 79414
5 | 17:38.65 | 2:49.48 | 79415 | 92137
6 | 20:28.38 | 1:42.30 | 92138 | 99817
7 | 22:10.68 | 5:45.52 | 99818 | 125744
8 | 27:56.45 | 4:08.12 | 125745 | 144356
9 | 32:04.57 | 4:31.19 | 144357 | 164700
10 | 36:36.01 | 3:56.68 | 164701 | 182468
11 | 40:32.69 | 3:55.32 | 182469 | 200125
12 | 44:28.26 | 3:26.36 | 200126 | 215611
13 | 47:54.62 | 3:31.59 | 215612 | 231495
14 | 51:26.46 | 4:01.22 | 231496 | 249592
15 | 55:27.68 | 4:58.01 | 249593 | 271943
16 | 60:25.69 | 3:58.13 | 271944 | 289806
17 | 64:24.07 | 3:58.10 | 289807 | 307666
18 | 68:22.17 | 2:51.09 | 307667 | 320500
19 | 71:13.26 | 4:21.16 | 320501 | 340091
20 | 75:34.42 | 4:18.54 | 340092 | 359495
Характеристики диапазона извлечения и сообщения об ошибках
Выбранный диапазон
Имя файла G:\Torrent\Dalida - Music Box\Dalida - Music Box.wav
Пиковый уровень 96.6 %
Качество диапазона 100.0 %
CRC копии 03B82990
Копирование... OK
Ошибок не произошло
AccurateRip: сводка
Трек 1 нет в базе данных
Трек 2 нет в базе данных
Трек 3 нет в базе данных
Трек 4 нет в базе данных
Трек 5 нет в базе данных
Трек 6 нет в базе данных
Трек 7 нет в базе данных
Трек 8 нет в базе данных
Трек 9 нет в базе данных
Трек 10 нет в базе данных
Трек 11 нет в базе данных
Трек 12 нет в базе данных
Трек 13 нет в базе данных
Трек 14 нет в базе данных
Трек 15 нет в базе данных
Трек 16 нет в базе данных
Трек 17 нет в базе данных
Трек 18 нет в базе данных
Трек 19 нет в базе данных
Трек 20 нет в базе данных
Ни одного трека нет в базе AccurateRip
Конец отчёта


AUDIOCHECKER v2.0 beta (build 457) - by Dester - opdester@freemail.hu
~~~~~~~~~~~~~~~~~~~~~~~~~~~~~~~~~~
Начато: четверг, 21. 05. 2009. - 9:01.23
Найдено файлов: 1
1 -===- G:\Torrent\Dalida - Music Box\Dalida - Music Box.ape
Извлечение успешно выполнено
Заключение: этот трек - CDDA с вероятностью 100%
Временный файл удалён.
Завершено: четверг, 21. 05. 2009. - 9:07.23 (Время операции: 0:05.59)



















Правила, инструкции, FAQ!!!
Торрент  Добавлен [01 янв 2020, 23:04] Скачать торрент Магнет ссылка
Скачать торрент
[ Размер 11.06 КБ / Просмотров 9 ]

Статус
Проверен 
 
Размер  530.09 МБ
Приватный: Нет (DHT включён)
.torrent скачан  0
 


     Отправить личное сообщение
   
Страница 1 из 1
Показать сообщения за:  Поле сортировки  
Начать новую тему Ответить на тему


Сейчас этот форум просматривают: нет зарегистрированных пользователей и гости: 0


Вы не можете начинать темы
Вы не можете отвечать на сообщения
Вы не можете редактировать свои сообщения
Вы не можете удалять свои сообщения
Вы не можете добавлять вложения

Перейти:  
cron