Начать новую тему Ответить на тему
Статистика раздачи
Размер: 276.93 МБ | Добавлен: 26 мар 2019, 20:49 | Скачали: 0
Сидеров: 0  [0 байт/сек]    Личеров: 0  [0 байт/сек]
Пред. тема | След. тема 

Автор
Сообщение

СообщениеДобавлено: 26 мар 2019, 20:49 

Ответить с цитатой 

Andy Fairweather Low - La Booga Rooga (1975)

Жанр: Roots Rock, Pop-Rock, Funky
Год выпуска диска
: 2006
Производитель диска: Japan
Аудио кодек: FLAC
Тип рипа: tracks+.cue
Битрейт аудио: lossless
Трэклист:
01. My Bucket's Got A Hole In It
02. Jump Up And Turn Around
03. Halfway To Everything
04. La Booga Rooga
05. Champagne Melody
06. If That's What It Takes
07. 8 Ton Crazy
08. Grease It Up
09. Wide Eyed And Legless
10. Inner City Highwayman
Доп. информация:
Рип сделан immortals (what.cd) по моему реквесту.

-------------------------------------------------------------------------------------
Послушайте кайфы от Энди, он большой музыкант и автор. Жаль только скромный очень
REM GENRE Jazz
REM DATE 1975
REM DISCID 7E08F10A
REM COMMENT "ExactAudioCopy v0.99pb5"
FILE "Andy Fairweather Low - 1975 - La Booga Rooga\01 - My Bucket's Got A Hole In It.wav" WAVE
TRACK 01 AUDIO
INDEX 01 00:00:00
FILE "Andy Fairweather Low - 1975 - La Booga Rooga\02 - Jump Up And Turn Around.wav" WAVE
TRACK 02 AUDIO
INDEX 01 00:00:00
FILE "Andy Fairweather Low - 1975 - La Booga Rooga\03 - Halfway To Everything.wav" WAVE
TRACK 03 AUDIO
INDEX 01 00:00:00
TRACK 04 AUDIO
INDEX 00 04:03:48
FILE "Andy Fairweather Low - 1975 - La Booga Rooga\04 - La Booga Rooga.wav" WAVE
INDEX 01 00:00:00
TRACK 05 AUDIO
INDEX 00 04:12:32
FILE "Andy Fairweather Low - 1975 - La Booga Rooga\05 - Champagne Melody.wav" WAVE
INDEX 01 00:00:00
TRACK 06 AUDIO
INDEX 00 03:32:06
FILE "Andy Fairweather Low - 1975 - La Booga Rooga\06 - If That's What It Takes.wav" WAVE
INDEX 01 00:00:00
FILE "Andy Fairweather Low - 1975 - La Booga Rooga\07 - 8 Ton Crazy.wav" WAVE
TRACK 07 AUDIO
INDEX 01 00:00:00
FILE "Andy Fairweather Low - 1975 - La Booga Rooga\08 - Grease It Up.wav" WAVE
TRACK 08 AUDIO
INDEX 01 00:00:00
TRACK 09 AUDIO
INDEX 00 03:10:37
FILE "Andy Fairweather Low - 1975 - La Booga Rooga\09 - Wide Eyed And Legless.wav" WAVE
INDEX 01 00:00:00
TRACK 10 AUDIO
INDEX 00 04:01:02
FILE "Andy Fairweather Low - 1975 - La Booga Rooga\10 - Inner City Highwayman.wav" WAVE
INDEX 01 00:00:00
Exact Audio Copy V0.99 prebeta 5 from 4. May 2009
EAC extraction logfile from 15. June 2010, 20:36
Andy Fairweather Low / La Booga Rooga
Used drive : LITE-ON DVDRW LH-20A1L Adapter: 3 ID: 0
Read mode : Secure
Utilize accurate stream : Yes
Defeat audio cache : Yes
Make use of C2 pointers : No
Read offset correction : 6
Overread into Lead-In and Lead-Out : No
Fill up missing offset samples with silence : Yes
Delete leading and trailing silent blocks : No
Null samples used in CRC calculations : Yes
Used interface : Native Win32 interface for Win NT & 2000
Gap handling : Appended to previous track
Used output format : User Defined Encoder
Selected bitrate : 320 kBit/s
Quality : High
Add ID3 tag : No
Command line compressor : C:\Program Files (x86)\Exact Audio Copy\Flac\flac.exe
Additional command line options : -V -8 -T "artist=%a" -T "title=%t" -T "album=%g" -T "date=%y" -T "tracknumber=%n" -T "genre=%m" %s
TOC of the extracted CD
Track | Start | Length | Start sector | End sector
---------------------------------------------------------
1 | 0:00.00 | 3:11.04 | 0 | 14328
2 | 3:11.04 | 4:04.47 | 14329 | 32675
3 | 7:15.51 | 4:04.71 | 32676 | 51046
4 | 11:20.47 | 4:13.51 | 51047 | 70072
5 | 15:34.23 | 3:34.14 | 70073 | 86136
6 | 19:08.37 | 3:30.64 | 86137 | 101950
7 | 22:39.26 | 3:31.24 | 101951 | 117799
8 | 26:10.50 | 3:12.69 | 117800 | 132268
9 | 29:23.44 | 4:03.41 | 132269 | 150534
10 | 33:27.10 | 4:42.17 | 150535 | 171701
Track 1
Filename K:\Andy Fairweather Low - 1975 - La Booga Rooga\01 - My Bucket's Got A Hole In It.wav
Pre-gap length 0:00:02.00
Peak level 99.9 %
Track quality 100.0 %
Test CRC D4ABDFBA
Copy CRC D4ABDFBA
Accurately ripped (confidence 1) [D4FA6B02]
Copy OK
Track 2
Filename K:\Andy Fairweather Low - 1975 - La Booga Rooga\02 - Jump Up And Turn Around.wav
Peak level 99.9 %
Track quality 100.0 %
Test CRC 62917175
Copy CRC 62917175
Accurately ripped (confidence 1) [DD19E8BB]
Copy OK
Track 3
Filename K:\Andy Fairweather Low - 1975 - La Booga Rooga\03 - Halfway To Everything.wav
Peak level 99.9 %
Track quality 100.0 %
Test CRC 4DB7134E
Copy CRC 4DB7134E
Accurately ripped (confidence 1) [816B48D2]
Copy OK
Track 4
Filename K:\Andy Fairweather Low - 1975 - La Booga Rooga\04 - La Booga Rooga.wav
Pre-gap length 0:00:01.30
Peak level 99.9 %
Track quality 99.9 %
Test CRC EE64912B
Copy CRC EE64912B
Accurately ripped (confidence 1) [3B6CAECB]
Copy OK
Track 5
Filename K:\Andy Fairweather Low - 1975 - La Booga Rooga\05 - Champagne Melody.wav
Pre-gap length 0:00:01.25
Peak level 99.9 %
Track quality 99.9 %
Test CRC E513753B
Copy CRC E513753B
Accurately ripped (confidence 1) [B75AA4D6]
Copy OK
Track 6
Filename K:\Andy Fairweather Low - 1975 - La Booga Rooga\06 - If That's What It Takes.wav
Pre-gap length 0:00:02.10
Peak level 99.9 %
Track quality 99.9 %
Test CRC 17146053
Copy CRC 17146053
Accurately ripped (confidence 1) [698452F0]
Copy OK
Track 7
Filename K:\Andy Fairweather Low - 1975 - La Booga Rooga\07 - 8 Ton Crazy.wav
Peak level 99.9 %
Track quality 100.0 %
Test CRC 68C636BE
Copy CRC 68C636BE
Accurately ripped (confidence 1) [14384BA4]
Copy OK
Track 8
Filename K:\Andy Fairweather Low - 1975 - La Booga Rooga\08 - Grease It Up.wav
Peak level 99.9 %
Track quality 99.9 %
Test CRC 282BEA69
Copy CRC 282BEA69
Accurately ripped (confidence 1) [0E92E5E3]
Copy OK
Track 9
Filename K:\Andy Fairweather Low - 1975 - La Booga Rooga\09 - Wide Eyed And Legless.wav
Pre-gap length 0:00:02.42
Peak level 99.9 %
Track quality 100.0 %
Test CRC 9FCA991C
Copy CRC 9FCA991C
Accurately ripped (confidence 1) [E7540CD7]
Copy OK
Track 10
Filename K:\Andy Fairweather Low - 1975 - La Booga Rooga\10 - Inner City Highwayman.wav
Pre-gap length 0:00:02.52
Peak level 99.9 %
Track quality 100.0 %
Test CRC 7093C2D8
Copy CRC 7093C2D8
Accurately ripped (confidence 1) [78144B65]
Copy OK
All tracks accurately ripped
No errors occurred
End of status report
Правила, инструкции, FAQ!!!
Торрент  Добавлен [26 мар 2019, 20:49] Скачать торрент Магнет ссылка
Скачать торрент
[ Размер 12.62 КБ / Просмотров 0 ]

Статус
Проверен 
 
Размер  276.93 МБ
Приватный: Нет (DHT включён)
.torrent скачан  0
 


     Отправить личное сообщение
   
Страница 1 из 1
Показать сообщения за:  Поле сортировки  
Начать новую тему Ответить на тему


Сейчас этот форум просматривают: нет зарегистрированных пользователей и гости: 0


Вы не можете начинать темы
Вы не можете отвечать на сообщения
Вы не можете редактировать свои сообщения
Вы не можете удалять свои сообщения
Вы не можете добавлять вложения

Перейти:  
cron