Начать новую тему Ответить на тему
Статистика раздачи
Размер: 311.41 МБ | Добавлен: 26 мар 2019, 19:50 | Скачали: 0
Сидеров: 0  [0 байт/сек]    Личеров: 0  [0 байт/сек]
Пред. тема | След. тема 

Автор
Сообщение

СообщениеДобавлено: 26 мар 2019, 19:50 

Ответить с цитатой 

Little Village - Little Village
Жанр: Roots rock
Носитель: CD
Страна-производитель диска: US
Год издания: 1992
Издатель (лейбл): Reprise Records
Номер по каталогу: 9 26713-2
Страна группы: US
Аудиокодек: FLAC (*.flac)
Тип рипа: tracks+.cue
Битрейт аудио: lossless
Продолжительность: 00:46:22
Источник (релизер): thepiratebay (dickspic)
Наличие сканов в содержимом раздачи: да
Треклист:
01. The Solar Sex Panel 3:47
02. The Action 3:25
03. Inside Job 4:17
04. Big Love 6:26
05. Take Another Look 3:40
06. Do You Want My Job 5:36
07. Don't Go Away Mad 3:39
08. Fool Who Knows 3:46
09. She Runs Hot 3:19
10. Don't Think About Her When You're Trying to Drive 4:33
11. Don't Bug Me When I'm Working 3:56
Код:
Exact Audio Copy V0.99 prebeta 4 from 23. January 2008
EAC extraction logfile from 3. April 2008, 21:24
Little Village / Little Village
Used drive  : HL-DT-STRW/DVD GCC-4240N   Adapter: 2  ID: 0
Read mode               : Secure
Utilize accurate stream : Yes
Defeat audio cache      : Yes
Make use of C2 pointers : No
Read offset correction                      : 102
Overread into Lead-In and Lead-Out          : No
Fill up missing offset samples with silence : Yes
Delete leading and trailing silent blocks   : No
Null samples used in CRC calculations       : Yes
Used interface                              : Installed external ASPI interface
Gap handling                                : Appended to previous track
Used output format              : User Defined Encoder
Selected bitrate                : 192 kBit/s
Quality                         : High
Add ID3 tag                     : No
Command line compressor         : C:\Program Files\Exact Audio Copy\bin\flac.exe
Additional command line options : -8 -A tukey(0.25) -A gauss(0.1875) -b 4096 -V -T "artist=%a" -T "title=%t" -T "album=%g" -T "date=%y" -T "tracknumber=%n" -T "genre=%m" %s --sector-align
TOC of the extracted CD
     Track |   Start  |  Length  | Start sector | End sector
    ---------------------------------------------------------
        1  |  0:00.32 |  3:46.28 |        32    |    17009
        2  |  3:46.60 |  3:24.62 |     17010    |    32371
        3  |  7:11.47 |  4:16.20 |     32372    |    51591
        4  | 11:27.67 |  6:25.03 |     51592    |    80469
        5  | 17:52.70 |  3:40.00 |     80470    |    96969
        6  | 21:32.70 |  5:37.57 |     96970    |   122301
        7  | 27:10.52 |  3:38.53 |    122302    |   138704
        8  | 30:49.30 |  3:45.65 |    138705    |   155644
        9  | 34:35.20 |  3:18.52 |    155645    |   170546
       10  | 37:53.72 |  4:32.43 |    170547    |   190989
       11  | 42:26.40 |  3:55.72 |    190990    |   208686
Track  1
     Filename C:\Documents and Settings\Administrator\Desktop\Random Desktop Files\CD rips\Little Village - Little Village\01 - Solar Sex Panel.wav
     Pre-gap length  0:00:02.32
     Peak level 97.2 %
     Track quality 100.0 %
     Test CRC 49898138
     Copy CRC 49898138
     Copy OK
Track  2
     Filename C:\Documents and Settings\Administrator\Desktop\Random Desktop Files\CD rips\Little Village - Little Village\02 - The Action.wav
     Peak level 97.5 %
     Track quality 100.0 %
     Test CRC 8040700E
     Copy CRC 8040700E
     Copy OK
Track  3
     Filename C:\Documents and Settings\Administrator\Desktop\Random Desktop Files\CD rips\Little Village - Little Village\03 - Inside Job.wav
     Peak level 96.7 %
     Track quality 100.0 %
     Test CRC B3F4B03A
     Copy CRC B3F4B03A
     Copy OK
Track  4
     Filename C:\Documents and Settings\Administrator\Desktop\Random Desktop Files\CD rips\Little Village - Little Village\04 - Big Love.wav
     Peak level 100.0 %
     Track quality 100.0 %
     Test CRC 34A28DE4
     Copy CRC 34A28DE4
     Copy OK
Track  5
     Filename C:\Documents and Settings\Administrator\Desktop\Random Desktop Files\CD rips\Little Village - Little Village\05 - Take Another Look.wav
     Peak level 99.1 %
     Track quality 100.0 %
     Test CRC 5CA776AC
     Copy CRC 5CA776AC
     Copy OK
Track  6
     Filename C:\Documents and Settings\Administrator\Desktop\Random Desktop Files\CD rips\Little Village - Little Village\06 - Do You Want My Job.wav
     Peak level 95.4 %
     Track quality 100.0 %
     Test CRC C2694E72
     Copy CRC C2694E72
     Copy OK
Track  7
     Filename C:\Documents and Settings\Administrator\Desktop\Random Desktop Files\CD rips\Little Village - Little Village\07 - Don't Go Away Mad.wav
     Pre-gap length  0:00:01.17
     Peak level 98.4 %
     Track quality 100.0 %
     Test CRC C2AA6535
     Copy CRC C2AA6535
     Copy OK
Track  8
     Filename C:\Documents and Settings\Administrator\Desktop\Random Desktop Files\CD rips\Little Village - Little Village\08 - Fool Who Knows.wav
     Peak level 96.3 %
     Track quality 100.0 %
     Test CRC 743BFB4E
     Copy CRC 743BFB4E
     Copy OK
Track  9
     Filename C:\Documents and Settings\Administrator\Desktop\Random Desktop Files\CD rips\Little Village - Little Village\09 - She Runs Hot.wav
     Peak level 97.5 %
     Track quality 100.0 %
     Test CRC 98038138
     Copy CRC 98038138
     Copy OK
Track 10
     Filename C:\Documents and Settings\Administrator\Desktop\Random Desktop Files\CD rips\Little Village - Little Village\10 - Don't Think About Her When You're Trying To Drive.wav
     Peak level 98.5 %
     Track quality 100.0 %
     Test CRC 9DDAA56A
     Copy CRC 9DDAA56A
     Copy OK
Track 11
     Filename C:\Documents and Settings\Administrator\Desktop\Random Desktop Files\CD rips\Little Village - Little Village\11 - Don't Bug Me When I'm Working.wav
     Pre-gap length  0:00:00.10
     Peak level 97.0 %
     Track quality 100.0 %
     Test CRC A7895052
     Copy CRC A7895052
     Copy OK
No errors occurred
End of status report
------------------------------------------------------------
Exact Audio Copy V0.99 prebeta 4 from 23. January 2008
EAC extraction logfile from 3. April 2008, 21:24
Little Village / Little Village
Used drive  : HL-DT-STRW/DVD GCC-4240N   Adapter: 2  ID: 0
Read mode               : Secure
Utilize accurate stream : Yes
Defeat audio cache      : Yes
Make use of C2 pointers : No
Read offset correction                      : 102
Overread into Lead-In and Lead-Out          : No
Fill up missing offset samples with silence : Yes
Delete leading and trailing silent blocks   : No
Null samples used in CRC calculations       : Yes
Used interface                              : Installed external ASPI interface
Gap handling                                : Appended to previous track
Used output format              : User Defined Encoder
Selected bitrate                : 192 kBit/s
Quality                         : High
Add ID3 tag                     : No
Command line compressor         : C:\Program Files\Exact Audio Copy\bin\flac.exe
Additional command line options : -8 -A tukey(0.25) -A gauss(0.1875) -b 4096 -V -T "artist=%a" -T "title=%t" -T "album=%g" -T "date=%y" -T "tracknumber=%n" -T "genre=%m" %s --sector-align
TOC of the extracted CD
     Track |   Start  |  Length  | Start sector | End sector
    ---------------------------------------------------------
        1  |  0:00.32 |  3:46.28 |        32    |    17009
        2  |  3:46.60 |  3:24.62 |     17010    |    32371
        3  |  7:11.47 |  4:16.20 |     32372    |    51591
        4  | 11:27.67 |  6:25.03 |     51592    |    80469
        5  | 17:52.70 |  3:40.00 |     80470    |    96969
        6  | 21:32.70 |  5:37.57 |     96970    |   122301
        7  | 27:10.52 |  3:38.53 |    122302    |   138704
        8  | 30:49.30 |  3:45.65 |    138705    |   155644
        9  | 34:35.20 |  3:18.52 |    155645    |   170546
       10  | 37:53.72 |  4:32.43 |    170547    |   190989
       11  | 42:26.40 |  3:55.72 |    190990    |   208686
Track  1
     Filename C:\Documents and Settings\Administrator\Desktop\Random Desktop Files\CD rips\Little Village - Little Village\01 - Solar Sex Panel.wav
     Pre-gap length  0:00:02.32
     Peak level 97.2 %
     Track quality 100.0 %
     Test CRC 49898138
     Copy CRC 49898138
     Copy OK
Track  2
     Filename C:\Documents and Settings\Administrator\Desktop\Random Desktop Files\CD rips\Little Village - Little Village\02 - The Action.wav
     Peak level 97.5 %
     Track quality 100.0 %
     Test CRC 8040700E
     Copy CRC 8040700E
     Copy OK
Track  3
     Filename C:\Documents and Settings\Administrator\Desktop\Random Desktop Files\CD rips\Little Village - Little Village\03 - Inside Job.wav
     Peak level 96.7 %
     Track quality 100.0 %
     Test CRC B3F4B03A
     Copy CRC B3F4B03A
     Copy OK
Track  4
     Filename C:\Documents and Settings\Administrator\Desktop\Random Desktop Files\CD rips\Little Village - Little Village\04 - Big Love.wav
     Peak level 100.0 %
     Track quality 100.0 %
     Test CRC 34A28DE4
     Copy CRC 34A28DE4
     Copy OK
Track  5
     Filename C:\Documents and Settings\Administrator\Desktop\Random Desktop Files\CD rips\Little Village - Little Village\05 - Take Another Look.wav
     Peak level 99.1 %
     Track quality 100.0 %
     Test CRC 5CA776AC
     Copy CRC 5CA776AC
     Copy OK
Track  6
     Filename C:\Documents and Settings\Administrator\Desktop\Random Desktop Files\CD rips\Little Village - Little Village\06 - Do You Want My Job.wav
     Peak level 95.4 %
     Track quality 100.0 %
     Test CRC C2694E72
     Copy CRC C2694E72
     Copy OK
Track  7
     Filename C:\Documents and Settings\Administrator\Desktop\Random Desktop Files\CD rips\Little Village - Little Village\07 - Don't Go Away Mad.wav
     Pre-gap length  0:00:01.17
     Peak level 98.4 %
     Track quality 100.0 %
     Test CRC C2AA6535
     Copy CRC C2AA6535
     Copy OK
Track  8
     Filename C:\Documents and Settings\Administrator\Desktop\Random Desktop Files\CD rips\Little Village - Little Village\08 - Fool Who Knows.wav
     Peak level 96.3 %
     Track quality 100.0 %
     Test CRC 743BFB4E
     Copy CRC 743BFB4E
     Copy OK
Track  9
     Filename C:\Documents and Settings\Administrator\Desktop\Random Desktop Files\CD rips\Little Village - Little Village\09 - She Runs Hot.wav
     Peak level 97.5 %
     Track quality 100.0 %
     Test CRC 98038138
     Copy CRC 98038138
     Copy OK
Track 10
     Filename C:\Documents and Settings\Administrator\Desktop\Random Desktop Files\CD rips\Little Village - Little Village\10 - Don't Think About Her When You're Trying To Drive.wav
     Peak level 98.5 %
     Track quality 100.0 %
     Test CRC 9DDAA56A
     Copy CRC 9DDAA56A
     Copy OK
Track 11
     Filename C:\Documents and Settings\Administrator\Desktop\Random Desktop Files\CD rips\Little Village - Little Village\11 - Don't Bug Me When I'm Working.wav
     Pre-gap length  0:00:00.10
     Peak level 97.0 %
     Track quality 100.0 %
     Test CRC A7895052
     Copy CRC A7895052
     Copy OK
No errors occurred
End of status report
Код:
REM GENRE Rock
REM DATE 1992
REM DISCID 990ADE0B
REM COMMENT "ExactAudioCopy v0.99pb4"
PERFORMER "Little Village"
TITLE "Little Village"
FILE "01 - Solar Sex Panel.wav" WAVE
  TRACK 01 AUDIO
    TITLE "Solar Sex Panel"
    PERFORMER "Little Village"
    PREGAP 00:00:32
    INDEX 01 00:00:00
FILE "02 - The Action.wav" WAVE
  TRACK 02 AUDIO
    TITLE "The Action"
    PERFORMER "Little Village"
    INDEX 01 00:00:00
FILE "03 - Inside Job.wav" WAVE
  TRACK 03 AUDIO
    TITLE "Inside Job"
    PERFORMER "Little Village"
    INDEX 01 00:00:00
FILE "04 - Big Love.wav" WAVE
  TRACK 04 AUDIO
    TITLE "Big Love"
    PERFORMER "Little Village"
    INDEX 01 00:00:00
FILE "05 - Take Another Look.wav" WAVE
  TRACK 05 AUDIO
    TITLE "Take Another Look"
    PERFORMER "Little Village"
    INDEX 01 00:00:00
FILE "06 - Do You Want My Job.wav" WAVE
  TRACK 06 AUDIO
    TITLE "Do You Want My Job"
    PERFORMER "Little Village"
    INDEX 01 00:00:00
  TRACK 07 AUDIO
    TITLE "Don't Go Away Mad"
    PERFORMER "Little Village"
    INDEX 00 05:36:40
FILE "07 - Don't Go Away Mad.wav" WAVE
    INDEX 01 00:00:00
FILE "08 - Fool Who Knows.wav" WAVE
  TRACK 08 AUDIO
    TITLE "Fool Who Knows"
    PERFORMER "Little Village"
    INDEX 01 00:00:00
FILE "09 - She Runs Hot.wav" WAVE
  TRACK 09 AUDIO
    TITLE "She Runs Hot"
    PERFORMER "Little Village"
    INDEX 01 00:00:00
FILE "10 - Don't Think About Her When You're Trying To Drive.wav" WAVE
  TRACK 10 AUDIO
    TITLE "Don't Think About Her When You're Trying To Drive"
    PERFORMER "Little Village"
    INDEX 01 00:00:00
  TRACK 11 AUDIO
    TITLE "Don't Bug Me When I'm Working"
    PERFORMER "Little Village"
    INDEX 00 04:32:33
FILE "11 - Don't Bug Me When I'm Working.wav" WAVE
    INDEX 01 00:00:00
Код:
AUDIOCHECKER v2.0 beta (build 457) - by Dester - opdester@freemail.hu
~~~~~~~~~~~~~~~~~~~~~~~~~~~~~~~~~~
-=== НЕ РЕДАКТИРУЙТЕ ЭТОТ ФАЙЛ! ===-
Путь: ...\Little Village - Little Village - 1992 Flac
01 -=- 01 - Solar Sex Panel.flac -=- CDDA (100%)
02 -=- 02 - The Action.flac -=- CDDA (100%)
03 -=- 03 - Inside Job.flac -=- CDDA (100%)
04 -=- 04 - Big Love.flac -=- CDDA (100%)
05 -=- 05 - Take Another Look.flac -=- CDDA (99%)
06 -=- 06 - Do You Want My Job.flac -=- CDDA (99%)
07 -=- 07 - Don't Go Away Mad.flac -=- CDDA (99%)
08 -=- 08 - Fool Who Knows.flac -=- CDDA (100%)
09 -=- 09 - She Runs Hot.flac -=- CDDA (100%)
10 -=- 10 - Don't Think About Her When You're Trying To Drive.flac -=- CDDA (100%)
11 -=- 11 - Don't Bug Me When I'm Working.flac -=- CDDA (100%)
Сводка 99,73% CDDA
118443076
Ry Cooder - Guitars & Vocals
John Hiatt - Guitars & Vocals
Jim Keltner - Drums, Percussion & Guitar Compost
Nick Lowe - Bass & Vocals
All Background Vocals By Ry, John & Nick
Правила, инструкции, FAQ!!!
Торрент  Добавлен [26 мар 2019, 19:50] Скачать торрент Магнет ссылка
Скачать торрент
[ Размер 13.65 КБ / Просмотров 0 ]

Статус
Проверен 
 
Размер  311.41 МБ
Приватный: Нет (DHT включён)
.torrent скачан  0
 


     Отправить личное сообщение
   
Страница 1 из 1
Показать сообщения за:  Поле сортировки  
Начать новую тему Ответить на тему


Сейчас этот форум просматривают: нет зарегистрированных пользователей и гости: 0


Вы не можете начинать темы
Вы не можете отвечать на сообщения
Вы не можете редактировать свои сообщения
Вы не можете удалять свои сообщения
Вы не можете добавлять вложения

Перейти:  
cron