Начать новую тему Ответить на тему
Статистика раздачи
Размер: 811.52 МБ | Добавлен: 07 янв 2020, 21:38 | Скачали: 0
Сидеров: 0  [0 байт/сек]    Личеров: 0  [0 байт/сек]
Пред. тема | След. тема 

Автор
Сообщение

СообщениеДобавлено: 07 янв 2020, 21:38 

Ответить с цитатой 

Peter Tosh - Legalize It
Жанр: Roots Reggae, Reggae
Носитель: LP
Год выпуска: 1976
Лейбл: CBS - CBS 81556
Страна-производитель: Holland
Аудио кодек: FLAC
Тип рипа: tracks+.cue
Формат записи: 32/96
Формат раздачи: 24/96
Продолжительность: 00:39:02
Треклист:
Side 1
A1 - Legalize It - 4:10
A2 - Burial - 3:55
A3 - Whatcha Gonna Do - 2:28
A4 - No Sympathy - 4:30
A5 - Why Must I Cry - 3:12
Side 2
B1 - Igziabeher (Let Jah Be Praised) - 4:38
B2 - Ketchy Shuby - 4:59
B3 - Till Your Well Runs Dry - 6:11
B4 - Brand New Second Hand - 4:05
Companies, etc.
Recorded At - Randy's Studio
Recorded At - Treasure Isle Recording Studio
Mixed At - CBS Studios, New York
Published By - No. 11 Music
Pressed By - CBS, Haarlem - 01-81556
Phonographic Copyright (p) - CBS Inc.
Copyright (c) - CBS Inc.
Credits
Arranged By, Producer, Guitar [Reggae Guitar], Keyboards, Backing Vocals, Vocals - Peter Tosh
Backing Vocals - Bunny Wailer, Judy Mowatt, Rita Marley
Bass - Aston (Family Man) Barret, Robbie Shakespeare
Co-producer, Photography By - Lee Jaffe
Design - Andy Engel
Drums - Santa, Carlton Barrett
Engineer - Jerry Smith, Karl Pitterson
Guitar - Al Anderson, Donald Kinsey (tracks: A4, B4)
Harp - Ras Lee, Robbie
Keyboards - Tyrone Downey
Photography By [Additional] - Kim Gottlieb, Madeline Scott, Seth Shaw
Product Manager [Product Coordinator] - Gary Kurfirst
Written-By - B. Marley (tracks: A5), N. Livingston (tracks: A2, B3), P. Tosh
Notes
Includes printed inner sleeve with lyrics and band photos.
℗ 1976 CBS Inc.
Barcode and Other Identifiers
Matrix / Runout (Side A runout, stamped): CBS 01-81556-1A-2
Matrix / Runout (Side B runout, stamped): CBS 01-81556-2B-1
Rights Society: BIEM/STEMRA
Other (Sales code): Ⓨ
Matrix / Runout (On labels): (PC 34253)
Источник оцифровки: третьим лицом
Код класса состояния винила: Ex
Устройство воспроизведения: Rega Planar 3
Головка звукоснимателя: Audio Technica AT33PTG
Предварительный усилитель: Project TUbe Box SE II
АЦП: Internal Macbook Pro
Программа-оцифровщик: Digital Performer
Обработка: Click Repair, iZotope RX for declicking
Доп. информация:
foobar2000 1.2.9 / Dynamic Range Meter 1.1.1
log date: 2015-02-28 03:13:41
--------------------------------------------------------------------------------
Analyzed: Peter Tosh / Legalize It (Dutch)
--------------------------------------------------------------------------------
DR Peak RMS Duration Track
--------------------------------------------------------------------------------
DR14 -0.89 dB -16.87 dB 4:43 01-Legalize It
DR14 -0.63 dB -16.30 dB 3:58 02-Burial
DR15 -0.06 dB -16.82 dB 2:30 03-Whatcha Gonna Do
DR14 -0.80 dB -16.94 dB 4:38 04-No Sympathy
DR12 -1.46 dB -15.53 dB 3:12 05-Why Must I Cry
DR14 -0.71 dB -16.28 dB 4:40 06-Igziabeher (Let Jah Be Praised)
DR15 -1.25 dB -18.96 dB 5:02 07-Ketchy Shuby
DR13 -2.50 dB -17.95 dB 6:13 08-Till Your Well Runs Dry
DR14 -3.02 dB -19.76 dB 4:06 09-Brand New Second Hand
--------------------------------------------------------------------------------
Number of tracks: 9
Official DR value: DR14
Samplerate: 96000 Hz
Channels: 2
Bits per sample: 24
Bitrate: 4608 kbps
Codec: PCM
================================================================================
Правила, инструкции, FAQ!!!
Торрент  Добавлен [07 янв 2020, 21:38] Скачать торрент Магнет ссылка
Скачать торрент
[ Размер 17.3 КБ / Просмотров 13 ]

Статус
Проверен 
 
Размер  811.52 МБ
Приватный: Нет (DHT включён)
.torrent скачан  0
 


     Отправить личное сообщение
   
Страница 1 из 1
Показать сообщения за:  Поле сортировки  
Начать новую тему Ответить на тему


Сейчас этот форум просматривают: нет зарегистрированных пользователей и гости: 0


Вы не можете начинать темы
Вы не можете отвечать на сообщения
Вы не можете редактировать свои сообщения
Вы не можете удалять свои сообщения
Вы не можете добавлять вложения

Перейти:  
cron