Начать новую тему Ответить на тему
Статистика раздачи
Размер: 664.61 МБ | Добавлен: 07 янв 2020, 21:34 | Скачали: 0
Сидеров: 0  [0 байт/сек]    Личеров: 0  [0 байт/сек]
Пред. тема | След. тема 

Автор
Сообщение

СообщениеДобавлено: 07 янв 2020, 21:34 

Ответить с цитатой 

Alpha Blondy - Cocody Rock!!! (1984)
Жанр: Roots Reggae
Носитель: LP
Год выпуска: 2010
Лейбл: VP Records - VPRL2426
Страна-производитель: USA
Аудио кодек: FLAC
Тип рипа: tracks+.cue
Формат записи: 24/96
Формат раздачи: 24/96
Продолжительность: 00:30:50
Треклист:
Side 1
A1 - Cocody Rock - 4:58
A2 - Tere - 5:40
A3 - Super Powers - 5:17
Side 2
B1 - Interplanetary Revolution - 4:35
B2 - Fangandan Kameleba - 5:37
B3 - Bory Samory - 5:07
Credits
Backing Vocals - Annette Lowman, Eugénie Kuffler, Jocelyne Beroard, Paula Moore, Véronique Kone
Bass - Ashton Barrett, Kamassa Seth
Drums - Carlton Barrett, Michel Abishira
Engineer - Dennis Bovell, Errol Browne, Francis Personne, Hervé Lecoz
Guitar [Solo] - Afri Lue Eugène, Christian Polloni, Earl "Chinna" Smith
Keyboards - Earl "Wire" Lindo, George Kwaku, Martin Meissonnier, Robbie Lynn
Rhythm Guitar - Afri Lue Eugène, Francois Cuffy, Julie Morillon, Lloyd "Gitsy" Willis
Vocals, Producer - Alpha Blondy
Barcode and Other Identifiers
Barcode: 054645242615
Источник оцифровки: третьим лицом
Код класса состояния винила: NM
Устройство воспроизведения: Clearaudio “Custom”
Головка звукоснимателя: Clearaudio Virtuoso V2
Предварительный усилитель: Pro-Ject Phono Box RS
АЦП: Tascam DR100 MKII
Программа-оцифровщик: Tascam DR100 MKII
Обработка: Light de-Clicking (Clickrepair)
Доп. информация:
foobar2000 1.3.6 / Dynamic Range Meter 1.1.1
log date: 2014-12-13 05:28:34
--------------------------------------------------------------------------------
Analyzed: Alpha Blondy / Cocody Rock!!!
--------------------------------------------------------------------------------
DR Peak RMS Duration Track
--------------------------------------------------------------------------------
DR12 -1.44 dB -15.03 dB 4:56 01-Cocody Rock
DR11 -0.53 dB -13.57 dB 5:47 02-Tere
DR12 -0.93 dB -15.03 dB 5:14 03-Super Powers
DR10 -0.53 dB -12.33 dB 4:34 04-Interplanetary Revolution
DR12 -0.90 dB -14.07 dB 5:24 05-Fangandan Kameleba
DR11 -0.78 dB -13.00 dB 4:55 06-Bory Samory
--------------------------------------------------------------------------------
Number of tracks: 6
Official DR value: DR11
Samplerate: 96000 Hz
Channels: 2
Bits per sample: 24
Bitrate: 4608 kbps
Codec: PCM
================================================================================
Правила, инструкции, FAQ!!!
Торрент  Добавлен [07 янв 2020, 21:34] Скачать торрент Магнет ссылка
Скачать торрент
[ Размер 14.21 КБ / Просмотров 14 ]

Статус
Проверен 
 
Размер  664.61 МБ
Приватный: Нет (DHT включён)
.torrent скачан  0
 


     Отправить личное сообщение
   
Страница 1 из 1
Показать сообщения за:  Поле сортировки  
Начать новую тему Ответить на тему


Сейчас этот форум просматривают: нет зарегистрированных пользователей и гости: 0


Вы не можете начинать темы
Вы не можете отвечать на сообщения
Вы не можете редактировать свои сообщения
Вы не можете удалять свои сообщения
Вы не можете добавлять вложения

Перейти:  
cron