Начать новую тему Ответить на тему
Статистика раздачи
Размер: 296.15 МБ | Добавлен: 26 мар 2019, 20:48 | Скачали: 0
Сидеров: 0  [0 байт/сек]    Личеров: 0  [0 байт/сек]
Пред. тема | След. тема 

Автор
Сообщение

СообщениеДобавлено: 26 мар 2019, 20:48 

Ответить с цитатой 

Orchestre tout puissant Marcel Duchamp / The Thing That Everything Else Is About
Жанр: Rock, World, African
Носитель: CD
Год издания: 2010
Страна исполнителя (группы): Switzerland
Аудиокодек: FLAC (*.flac)
Тип рипа: tracks+.cue
Битрейт аудио: lossless
Продолжительность: 00:49:02
Источник (релизер): web
Наличие сканов в содержимом раздачи: нет
Треклист:
01. R Mutt
02. Elephants
03. Misteriosa Fuiriosa
04. Left Hand
05. Mick
06. Aka
07. Ulrike
08. 49
09. Blood Pumps & Buds
10. Yawn
11. Going Home
Код:
X Lossless Decoder version 20141129a (148.2)
XLD extraction logfile from 2015-08-29 13:43:57 +0200
Orchestre Tout Puissant Marcel Duchamp/ The Thing That Everything Else Is About / Orchestre Tout Puissant Marcel Duchamp/ The Thing That Everything Else Is About
Used drive : Optiarc BD RW BD-5300S (revision 2.03)
Media type : Pressed CD
Ripper mode             : XLD Secure Ripper
Disable audio cache     : OK for the drive with a cache less than 1375KiB
Make use of C2 pointers : NO
Read offset correction  : 6
Max retry count         : 20
Gap status              : Analyzed, Appended
TOC of the extracted CD
     Track |   Start  |  Length  | Start sector | End sector
    ---------------------------------------------------------
        1  | 00:00:00 | 04:19:49 |         0    |    19473
        2  | 04:19:49 | 04:31:71 |     19474    |    39869
        3  | 08:51:45 | 03:19:19 |     39870    |    54813
        4  | 12:10:64 | 05:11:03 |     54814    |    78141
        5  | 17:21:67 | 02:25:43 |     78142    |    89059
        6  | 19:47:35 | 04:48:53 |     89060    |   110712
        7  | 24:36:13 | 04:59:29 |    110713    |   133166
        8  | 29:35:42 | 03:25:30 |    133167    |   148571
        9  | 33:00:72 | 04:30:10 |    148572    |   168831
       10  | 37:31:07 | 05:08:45 |    168832    |   191976
       11  | 42:39:52 | 06:27:56 |    191977    |   221057
AccurateRip Summary (DiscID: 001328ff-00a6d383-950b830b)
    Track 01 : OK (v2, confidence 2/2)
    Track 02 : OK (v2, confidence 2/2)
    Track 03 : OK (v2, confidence 2/2)
    Track 04 : OK (v2, confidence 2/2)
    Track 05 : OK (v2, confidence 2/2)
    Track 06 : OK (v2, confidence 2/2)
    Track 07 : OK (v2, confidence 2/2)
    Track 08 : OK (v2, confidence 2/2)
    Track 09 : OK (v2, confidence 2/2)
    Track 10 : OK (v2, confidence 2/2)
    Track 11 : OK (v2, confidence 2/2)
        ->All tracks accurately ripped.
All Tracks
    Album gain               : -7.83 dB
    Peak                     : 1.000000
    Statistics
        Read error                           : 0
        Jitter error (maybe fixed)           : 0
        Retry sector count                   : 0
        Damaged sector count                 : 0
Track 01
    Filename : /Volumes/Macintosh HD2/Orchestre Tout Puissant Marcel Duchamp - The Thing That Everything Else Is About/01 Orchestre Tout Puissant Marcel Duchamp/ The Thing That Everything Else Is About - R Mutt.flac
    Pre-gap length : 00:02:00
    Track gain               : -8.14 dB
    Peak                     : 1.000000
    CRC32 hash               : A328BC3A
    CRC32 hash (skip zero)   : 86E73276
    AccurateRip v1 signature : 41534BF9
    AccurateRip v2 signature : 7D123C27
        ->Accurately ripped (v2, confidence 2/2)
    Statistics
        Read error                           : 0
        Jitter error (maybe fixed)           : 0
        Retry sector count                   : 0
        Damaged sector count                 : 0
Track 02
    Filename : /Volumes/Macintosh HD2/Orchestre Tout Puissant Marcel Duchamp - The Thing That Everything Else Is About/02 Orchestre Tout Puissant Marcel Duchamp/ The Thing That Everything Else Is About - Elephants.flac
    Track gain               : -7.58 dB
    Peak                     : 1.000000
    CRC32 hash               : BB7C70B2
    CRC32 hash (skip zero)   : C60E1B37
    AccurateRip v1 signature : 8AC3FA05
    AccurateRip v2 signature : 1E68D755
        ->Accurately ripped (v2, confidence 2/2)
    Statistics
        Read error                           : 0
        Jitter error (maybe fixed)           : 0
        Retry sector count                   : 0
        Damaged sector count                 : 0
Track 03
    Filename : /Volumes/Macintosh HD2/Orchestre Tout Puissant Marcel Duchamp - The Thing That Everything Else Is About/03 Orchestre Tout Puissant Marcel Duchamp/ The Thing That Everything Else Is About - Misteriosa Furiosa.flac
    Track gain               : -7.21 dB
    Peak                     : 1.000000
    CRC32 hash               : 91CD2C49
    CRC32 hash (skip zero)   : 399FC9B4
    AccurateRip v1 signature : B87F1548
    AccurateRip v2 signature : 5A77A1AE
        ->Accurately ripped (v2, confidence 2/2)
    Statistics
        Read error                           : 0
        Jitter error (maybe fixed)           : 0
        Retry sector count                   : 0
        Damaged sector count                 : 0
Track 04
    Filename : /Volumes/Macintosh HD2/Orchestre Tout Puissant Marcel Duchamp - The Thing That Everything Else Is About/04 Orchestre Tout Puissant Marcel Duchamp/ The Thing That Everything Else Is About - Left Hand.flac
    Track gain               : -7.28 dB
    Peak                     : 1.000000
    CRC32 hash               : 1C7B445D
    CRC32 hash (skip zero)   : 01185EEB
    AccurateRip v1 signature : 541087A5
    AccurateRip v2 signature : BC226A93
        ->Accurately ripped (v2, confidence 2/2)
    Statistics
        Read error                           : 0
        Jitter error (maybe fixed)           : 0
        Retry sector count                   : 0
        Damaged sector count                 : 0
Track 05
    Filename : /Volumes/Macintosh HD2/Orchestre Tout Puissant Marcel Duchamp - The Thing That Everything Else Is About/05 Orchestre Tout Puissant Marcel Duchamp/ The Thing That Everything Else Is About - Mick.flac
    Track gain               : -8.68 dB
    Peak                     : 1.000000
    CRC32 hash               : 31BA282E
    CRC32 hash (skip zero)   : 3171A69D
    AccurateRip v1 signature : CB2F83FC
    AccurateRip v2 signature : 69043C0D
        ->Accurately ripped (v2, confidence 2/2)
    Statistics
        Read error                           : 0
        Jitter error (maybe fixed)           : 0
        Retry sector count                   : 0
        Damaged sector count                 : 0
Track 06
    Filename : /Volumes/Macintosh HD2/Orchestre Tout Puissant Marcel Duchamp - The Thing That Everything Else Is About/06 Orchestre Tout Puissant Marcel Duchamp/ The Thing That Everything Else Is About - Aka.flac
    Track gain               : -0.15 dB
    Peak                     : 0.977448
    CRC32 hash               : 5E4D151C
    CRC32 hash (skip zero)   : 5B6577BC
    AccurateRip v1 signature : 1A3D6EAD
    AccurateRip v2 signature : 40C51DCA
        ->Accurately ripped (v2, confidence 2/2)
    Statistics
        Read error                           : 0
        Jitter error (maybe fixed)           : 0
        Retry sector count                   : 0
        Damaged sector count                 : 0
Track 07
    Filename : /Volumes/Macintosh HD2/Orchestre Tout Puissant Marcel Duchamp - The Thing That Everything Else Is About/07 Orchestre Tout Puissant Marcel Duchamp/ The Thing That Everything Else Is About - Ulrike.flac
    Track gain               : -7.36 dB
    Peak                     : 1.000000
    CRC32 hash               : E78D331F
    CRC32 hash (skip zero)   : 22D95875
    AccurateRip v1 signature : 9D04E037
    AccurateRip v2 signature : F62556B1
        ->Accurately ripped (v2, confidence 2/2)
    Statistics
        Read error                           : 0
        Jitter error (maybe fixed)           : 0
        Retry sector count                   : 0
        Damaged sector count                 : 0
Track 08
    Filename : /Volumes/Macintosh HD2/Orchestre Tout Puissant Marcel Duchamp - The Thing That Everything Else Is About/08 Orchestre Tout Puissant Marcel Duchamp/ The Thing That Everything Else Is About - 49.flac
    Track gain               : -7.89 dB
    Peak                     : 1.000000
    CRC32 hash               : 1A37866E
    CRC32 hash (skip zero)   : 6D1C0240
    AccurateRip v1 signature : 7A781325
    AccurateRip v2 signature : 8E1B5B70
        ->Accurately ripped (v2, confidence 2/2)
    Statistics
        Read error                           : 0
        Jitter error (maybe fixed)           : 0
        Retry sector count                   : 0
        Damaged sector count                 : 0
Track 09
    Filename : /Volumes/Macintosh HD2/Orchestre Tout Puissant Marcel Duchamp - The Thing That Everything Else Is About/09 Orchestre Tout Puissant Marcel Duchamp/ The Thing That Everything Else Is About - Blood Pumps & Buds.flac
    Track gain               : -8.65 dB
    Peak                     : 1.000000
    CRC32 hash               : B260CFFF
    CRC32 hash (skip zero)   : 1B5C2599
    AccurateRip v1 signature : 0A19A4FC
    AccurateRip v2 signature : FFBFDA9F
        ->Accurately ripped (v2, confidence 2/2)
    Statistics
        Read error                           : 0
        Jitter error (maybe fixed)           : 0
        Retry sector count                   : 0
        Damaged sector count                 : 0
Track 10
    Filename : /Volumes/Macintosh HD2/Orchestre Tout Puissant Marcel Duchamp - The Thing That Everything Else Is About/10 Orchestre Tout Puissant Marcel Duchamp/ The Thing That Everything Else Is About - Yawn.flac
    Track gain               : -7.77 dB
    Peak                     : 1.000000
    CRC32 hash               : 84667652
    CRC32 hash (skip zero)   : 991A12D3
    AccurateRip v1 signature : B007CCB8
    AccurateRip v2 signature : 98B1EA76
        ->Accurately ripped (v2, confidence 2/2)
    Statistics
        Read error                           : 0
        Jitter error (maybe fixed)           : 0
        Retry sector count                   : 0
        Damaged sector count                 : 0
Track 11
    Filename : /Volumes/Macintosh HD2/Orchestre Tout Puissant Marcel Duchamp - The Thing That Everything Else Is About/11 Orchestre Tout Puissant Marcel Duchamp/ The Thing That Everything Else Is About - Going Home.flac
    Track gain               : -7.95 dB
    Peak                     : 1.000000
    CRC32 hash               : C87A15EF
    CRC32 hash (skip zero)   : 2ECA6BE1
    AccurateRip v1 signature : 165FFEFF
    AccurateRip v2 signature : 221C5E8C
        ->Accurately ripped (v2, confidence 2/2)
    Statistics
        Read error                           : 0
        Jitter error (maybe fixed)           : 0
        Retry sector count                   : 0
        Damaged sector count                 : 0
No errors occurred
End of status report
Код:
TITLE "Orchestre Tout Puissant Marcel Duchamp/ The Thing That Everything Else Is About"
PERFORMER "Orchestre Tout Puissant Marcel Duchamp/ The Thing That Everything Else Is About"
REM GENRE "folk"
REM DATE "2011"
REM DISCID 950B830B
REM REPLAYGAIN_ALBUM_GAIN -7.83 dB
REM REPLAYGAIN_ALBUM_PEAK 1.000000
FILE "01 Orchestre Tout Puissant Marcel Duchamp/ The Thing That Everything Else Is About - R Mutt.flac" WAVE
  TRACK 01 AUDIO
    TITLE "R Mutt"
    SONGWRITER "Orchestre Tout Puissant Marcel Duchamp"
    REM REPLAYGAIN_TRACK_GAIN -8.14 dB
    REM REPLAYGAIN_TRACK_PEAK 1.000000
    INDEX 01 00:00:00
FILE "02 Orchestre Tout Puissant Marcel Duchamp/ The Thing That Everything Else Is About - Elephants.flac" WAVE
  TRACK 02 AUDIO
    TITLE "Elephants"
    SONGWRITER "Orchestre Tout Puissant Marcel Duchamp"
    REM REPLAYGAIN_TRACK_GAIN -7.58 dB
    REM REPLAYGAIN_TRACK_PEAK 1.000000
    INDEX 01 00:00:00
FILE "03 Orchestre Tout Puissant Marcel Duchamp/ The Thing That Everything Else Is About - Misteriosa Furiosa.flac" WAVE
  TRACK 03 AUDIO
    TITLE "Misteriosa Furiosa"
    SONGWRITER "Orchestre Tout Puissant Marcel Duchamp"
    REM REPLAYGAIN_TRACK_GAIN -7.21 dB
    REM REPLAYGAIN_TRACK_PEAK 1.000000
    INDEX 01 00:00:00
FILE "04 Orchestre Tout Puissant Marcel Duchamp/ The Thing That Everything Else Is About - Left Hand.flac" WAVE
  TRACK 04 AUDIO
    TITLE "Left Hand"
    SONGWRITER "Orchestre Tout Puissant Marcel Duchamp"
    REM REPLAYGAIN_TRACK_GAIN -7.28 dB
    REM REPLAYGAIN_TRACK_PEAK 1.000000
    INDEX 01 00:00:00
FILE "05 Orchestre Tout Puissant Marcel Duchamp/ The Thing That Everything Else Is About - Mick.flac" WAVE
  TRACK 05 AUDIO
    TITLE "Mick"
    SONGWRITER "Orchestre Tout Puissant Marcel Duchamp"
    REM REPLAYGAIN_TRACK_GAIN -8.68 dB
    REM REPLAYGAIN_TRACK_PEAK 1.000000
    INDEX 01 00:00:00
FILE "06 Orchestre Tout Puissant Marcel Duchamp/ The Thing That Everything Else Is About - Aka.flac" WAVE
  TRACK 06 AUDIO
    TITLE "Aka"
    SONGWRITER "Orchestre Tout Puissant Marcel Duchamp"
    REM REPLAYGAIN_TRACK_GAIN -0.15 dB
    REM REPLAYGAIN_TRACK_PEAK 0.977448
    INDEX 01 00:00:00
FILE "07 Orchestre Tout Puissant Marcel Duchamp/ The Thing That Everything Else Is About - Ulrike.flac" WAVE
  TRACK 07 AUDIO
    TITLE "Ulrike"
    SONGWRITER "Orchestre Tout Puissant Marcel Duchamp"
    REM REPLAYGAIN_TRACK_GAIN -7.36 dB
    REM REPLAYGAIN_TRACK_PEAK 1.000000
    INDEX 01 00:00:00
FILE "08 Orchestre Tout Puissant Marcel Duchamp/ The Thing That Everything Else Is About - 49.flac" WAVE
  TRACK 08 AUDIO
    TITLE "49"
    SONGWRITER "Orchestre Tout Puissant Marcel Duchamp"
    REM REPLAYGAIN_TRACK_GAIN -7.89 dB
    REM REPLAYGAIN_TRACK_PEAK 1.000000
    INDEX 01 00:00:00
FILE "09 Orchestre Tout Puissant Marcel Duchamp/ The Thing That Everything Else Is About - Blood Pumps & Buds.flac" WAVE
  TRACK 09 AUDIO
    TITLE "Blood Pumps & Buds"
    SONGWRITER "Orchestre Tout Puissant Marcel Duchamp"
    REM REPLAYGAIN_TRACK_GAIN -8.65 dB
    REM REPLAYGAIN_TRACK_PEAK 1.000000
    INDEX 01 00:00:00
FILE "10 Orchestre Tout Puissant Marcel Duchamp/ The Thing That Everything Else Is About - Yawn.flac" WAVE
  TRACK 10 AUDIO
    TITLE "Yawn"
    SONGWRITER "Orchestre Tout Puissant Marcel Duchamp"
    REM REPLAYGAIN_TRACK_GAIN -7.77 dB
    REM REPLAYGAIN_TRACK_PEAK 1.000000
    INDEX 01 00:00:00
FILE "11 Orchestre Tout Puissant Marcel Duchamp/ The Thing That Everything Else Is About - Going Home.flac" WAVE
  TRACK 11 AUDIO
    TITLE "Going Home"
    SONGWRITER "Orchestre Tout Puissant Marcel Duchamp"
    REM REPLAYGAIN_TRACK_GAIN -7.95 dB
    REM REPLAYGAIN_TRACK_PEAK 1.000000
    INDEX 01 00:00:00
Правила, инструкции, FAQ!!!
Торрент  Добавлен [26 мар 2019, 20:48] Скачать торрент Магнет ссылка
Скачать торрент
[ Размер 13.73 КБ / Просмотров 1 ]

Статус
Проверен 
 
Размер  296.15 МБ
Приватный: Нет (DHT включён)
.torrent скачан  0
 


     Отправить личное сообщение
   
Страница 1 из 1
Показать сообщения за:  Поле сортировки  
Начать новую тему Ответить на тему


Сейчас этот форум просматривают: нет зарегистрированных пользователей и гости: 0


Вы не можете начинать темы
Вы не можете отвечать на сообщения
Вы не можете редактировать свои сообщения
Вы не можете удалять свои сообщения
Вы не можете добавлять вложения

Перейти:  
cron