Начать новую тему Ответить на тему
Статистика раздачи
Размер: 290.28 МБ | Добавлен: 26 мар 2019, 19:57 | Скачали: 0
Сидеров: 0  [0 байт/сек]    Личеров: 0  [0 байт/сек]
Пред. тема | След. тема 

Автор
Сообщение

СообщениеДобавлено: 26 мар 2019, 19:57 

Ответить с цитатой 

The Script - The Script
Жанр: Rock
Год выпуска диска: 2008
Производитель диска: UK
Аудио кодек: FLAC
Тип рипа: image+.cue
Битрейт аудио: lossless
Трэклист:
1. We Cry
2. Before The Worst
3. Talk You Down
4. Man Who Can't Be Moved
5. Breakeven
6. Rusty Halo
7. End Where I Begin
8. Fall For Anything
9. If You See Kay
10. I'm Yours
Exact Audio Copy V0.99 prebeta 4 from 23. January 2008
EAC extraction logfile from 17. October 2008, 19:49
The Script / The Script
Used drive : HL-DT-STDVD-RW GSA-H60L Adapter: 0 ID: 1
Read mode : Secure
Utilize accurate stream : Yes
Defeat audio cache : Yes
Make use of C2 pointers : No
Read offset correction : 667
Overread into Lead-In and Lead-Out : No
Fill up missing offset samples with silence : Yes
Delete leading and trailing silent blocks : No
Null samples used in CRC calculations : Yes
Used interface : Installed external ASPI interface
Used output format : User Defined Encoder
Selected bitrate : 768 kBit/s
Quality : High
Add ID3 tag : No
Command line compressor : C:\Program Files\Exact Audio Copy\FLAC\FLAC.EXE
Additional command line options : -6 -V -T "ARTIST=%a" -T "TITLE=%t" -T "ALBUM=%g" -T "DATE=%y" -T "TRACKNUMBER=%n" -T "GENRE=%m" -T "COMMENT=%e" %s -o %d
TOC of the extracted CD
Track | Start | Length | Start sector | End sector
---------------------------------------------------------
1 | 0:00.00 | 3:44.45 | 0 | 16844
2 | 3:44.45 | 3:23.08 | 16845 | 32077
3 | 7:07.53 | 3:51.15 | 32078 | 49417
4 | 10:58.68 | 4:01.52 | 49418 | 67544
5 | 15:00.45 | 4:21.32 | 67545 | 87151
6 | 19:22.02 | 3:34.71 | 87152 | 103272
7 | 22:56.73 | 3:34.37 | 103273 | 119359
8 | 26:31.35 | 4:32.58 | 119360 | 139817
9 | 31:04.18 | 3:13.45 | 139818 | 154337
10 | 34:17.63 | 4:17.33 | 154338 | 173645
Range status and errors
Selected range
Filename C:\EAC\The Script - The Script.wav
Peak level 100.0 %
Range quality 100.0 %
Test CRC 8112D4BF
Copy CRC 8112D4BF
Copy OK
No errors occurred
AccurateRip summary
Track 1 not present in database
Track 2 not present in database
Track 3 not present in database
Track 4 not present in database
Track 5 not present in database
Track 6 not present in database
Track 7 not present in database
Track 8 not present in database
Track 9 not present in database
Track 10 not present in database
None of the tracks are present in the AccurateRip database
End of status report
Правила, инструкции, FAQ!!!
Торрент  Добавлен [26 мар 2019, 19:57] Скачать торрент Магнет ссылка
Скачать торрент
[ Размер 12.16 КБ / Просмотров 3 ]

Статус
Проверен 
 
Размер  290.28 МБ
Приватный: Нет (DHT включён)
.torrent скачан  0
 


     Отправить личное сообщение
   
Страница 1 из 1
Показать сообщения за:  Поле сортировки  
Начать новую тему Ответить на тему


Сейчас этот форум просматривают: нет зарегистрированных пользователей и гости: 0


Вы не можете начинать темы
Вы не можете отвечать на сообщения
Вы не можете редактировать свои сообщения
Вы не можете удалять свои сообщения
Вы не можете добавлять вложения

Перейти:  
cron