Начать новую тему Ответить на тему
Статистика раздачи
Размер: 231.55 МБ | Добавлен: 26 мар 2019, 19:46 | Скачали: 0
Сидеров: 10  [0 байт/сек]    Личеров: 3  [0 байт/сек]
Пред. тема | След. тема 

Автор
Сообщение

СообщениеДобавлено: 26 мар 2019, 19:46 

Ответить с цитатой 

The Police - Synchronicity
Страна: Air Studios, Montserrat and Le Studio, Quebec, Canada
Жанр: Rock
Год выпуска: 1983 (1990)
Формат: APE (image + .cue)
Битрейт аудио: lossless
Продолжительность: 39:52:30
Трэклист:
01. Synchronicity I (3:27)
02. Walking In Your Footsteps (3:37)
03. O My God (4:02)
04. Mother (3:06)
05. Miss Gradenko (2:00)
06. Synchronicity Ii (5:02)
07. Every Breath You Take (4:14)
08. King Of Pain (4:59)
09. Wrapped Around Your Finger (5:14)
10. Tea In The Sahara (4:12)
11. Murder By Numbers (bonus track) (4:35)
Доп. информация:
Album notes
The Police: Sting (vocals, bass); Andy Summers (vocals, guitar); Stewart Copeland (vocals, drums).
Recorded at Air Studios, Montserrat and Le Studio, Quebec, Canada.
Fancy knowing you were going to break up and yet be able to record and produce this masterpiece. The world domination of the Police was as calculated and planned as was their departure. Each of the intervening albums have something special but the power of tracks such as 'Synchronicity II', and the haunting quality of 'Every Breath You Take' (you really believe Sting when he says, 'I'll be watching you') give this record the edge. The only tracks less than brilliant are Summers' and Copeland's offerings, a fact of which they must all have been aware. They bowed out while they were still winning.
Артист: The Police
Альбом: Synchronicity, 1990
Издатель: Mobile Fidelity Sound Lab / UDCD-511
Сканы буклета и ковров в комплекте.
EAC extraction logfile from 18. August 2007, 9:49 for CD
The Police / Synchronicity (MFSL)
Used drive : PIONEER DVD-RW DVR-109 Adapter: 0 ID: 0
Read mode : Secure with NO C2, accurate stream, disable cache
Read offset correction : 48
Overread into Lead-In and Lead-Out : No
Used output format : Internal WAV Routines
44.100 Hz; 16 Bit; Stereo
Other options :
Fill up missing offset samples with silence : Yes
Delete leading and trailing silent blocks : No
Installed external ASPI interface
Range status and errors
Selected range
Filename D:\New Folder (2)\Share\2007\The Police - Synchronicity (MFSL).wav
Peak level 97.7 %
Range quality 100.0 %
CRC 3B009AE0
Copy OK
No errors occured
End of status report
REM GENRE Rock
REM DATE 1983
REM DISCID 9B0A6B0B
REM COMMENT "ExactAudioCopy v0.95b4"
PERFORMER "The Police"
TITLE "Synchronicity (MFSL)"
FILE "The Police - Synchronicity.ape" WAVE
TRACK 01 AUDIO
TITLE "Synchronicity I"
PERFORMER "The Police"
INDEX 01 00:00:00
TRACK 02 AUDIO
TITLE "Walking In Your Footsteps"
PERFORMER "The Police"
INDEX 01 03:26:50
TRACK 03 AUDIO
TITLE "O My God"
PERFORMER "The Police"
INDEX 01 07:03:27
TRACK 04 AUDIO
TITLE "Mother"
PERFORMER "The Police"
INDEX 01 11:05:47
TRACK 05 AUDIO
TITLE "Miss Gradenko"
PERFORMER "The Police"
INDEX 01 14:11:20
TRACK 06 AUDIO
TITLE "Synchronicity Ii"
PERFORMER "The Police"
INDEX 01 16:11:20
TRACK 07 AUDIO
TITLE "Every Breath You Take"
PERFORMER "The Police"
INDEX 01 21:13:55
TRACK 08 AUDIO
TITLE "King Of Pain"
PERFORMER "The Police"
INDEX 01 25:27:62
TRACK 09 AUDIO
TITLE "Wrapped Around Your Finger"
PERFORMER "The Police"
INDEX 01 30:26:57
TRACK 10 AUDIO
TITLE "Tea In The Sahara"
PERFORMER "The Police"
INDEX 01 35:40:40
TRACK 11 AUDIO
TITLE "Murder By Numbers"
PERFORMER "The Police"
INDEX 01 39:52:30
Благодарность за сей релиз уходит к Artiom-nor.
Правила, инструкции, FAQ!!!
Торрент  Добавлен [26 мар 2019, 19:46] Скачать торрент Магнет ссылка
Скачать торрент
[ Размер 19.05 КБ / Просмотров 11 ]

Статус
Проверен 
 
Размер  231.55 МБ
Приватный: Нет (DHT включён)
.torrent скачан  0
 


     Отправить личное сообщение
   
Страница 1 из 1
Показать сообщения за:  Поле сортировки  
Начать новую тему Ответить на тему


Сейчас этот форум просматривают: нет зарегистрированных пользователей и гости: 0


Вы не можете начинать темы
Вы не можете отвечать на сообщения
Вы не можете редактировать свои сообщения
Вы не можете удалять свои сообщения
Вы не можете добавлять вложения

Перейти:  
cron