Начать новую тему Ответить на тему
Статистика раздачи
Размер: 3.84 ГБ | Добавлен: 31 мар 2021, 07:08 | Скачали: 4
Сидеров: 83  [0 байт/сек]    Личеров: 28  [0 байт/сек]
Пред. тема | След. тема 

Автор
Сообщение

СообщениеДобавлено: 04 сен 2016, 22:27 

Ответить с цитатой 

The Beatles - 09.09.09. Stereo Box Set (Original Recording Remastered) Japan, TOCP 71021-71036
Жанр: Rock
Год выпуска диска: 2009
Производитель диска: Japan
Аудио кодек: APE
Тип рипа: image+.cue
Битрейт аудио: lossless
Трэклист:
1.I Saw Her Standing There
2.Misery
3.Anna (Go to Him)
4.Chains
5.Boys
6.Ask Me Why
7.Please Please Me
8.Love Me Do
9.P.S. I Love You
10.Baby It's You
11.Do You Want To Know A Secret
12.A Taste of Honey
13.There's A Place
14.Twist and Shout
1.It Won't Be Long
2.All I've Got To Do
3.All My Loving
4.Don't Bother Me
5.Little Child
6.Till There Was You
7.Please Mister Postman
8.Roll Over Beethoven
9.Hold Me Tight
10.You Really Got A Hold On Me
11.I Wanna Be Your Man
12.Devil In Her Heart
13.Not A Second Time
14.Money
1.A Hard Day's Night
2.I Should Have Known Better
3.If I Fell
4.I'm Happy Just To Dance With You
5.And I Love Her
6.Tell Me Why
7.Can't Buy Me Love
8.Any Time At All
9.I'll Cry Instead
10.Things We Said Today
11.When I Get Home
12.You Can't Do That
13.I'll Be Back
1.No Reply
2.I'm A Loser
3.Baby's In Black
4.Rock And Roll Music
5.I'll Follow The Sun
6.Mr. Moonlight
7.Kansas City/Hey, Hey, Hey, Hey
8.Eight Days A Week
9.Words Of Love
10.Honey Don't
11.Every Little Thing
12.I Don't Want To Spoil The Party
13.What You're Doing
14.Everybody's Trying To Be My Baby
1.Help!
2.The Night Before
3.You've Got to Hide Your Love Away
4.I Need You
5.Another Girl
6.You're Going to Lose That Girl
7.Ticket To Ride
8.Act Naturally
9.It's Only Love
10.You Like Me Too Much
11.Tell Me What You See
12.I've Just Seen a Face
13.Yesterday
14.Dizzy Miss Lizzy
1.Drive My Car
2.Norwegian Wood (This Bird Has Flown)
3.You Won't See Me
4.Nowhere Man
5.Think For Yourself
6.The Word
7.Michelle
8.What Goes On
9.Girl
10.I'm Looking Through You
11.In My Life
12.Wait
13.If I Needed Someone
14.Run For Your Life
1.Taxman
2.Eleanor Rigby
3.I'm Only Sleeping
4.Love You To
5.Here, There, And Everywhere
6.Yellow Submarine
7.She Said, She Said
8.Good Day Sunshine
9.And Your Bird Can Sing
10.For No One
11.Doctor Robert
12.I Want To Tell You
13.Got To Get You Into My Life
14.Tomorrow Never Knows
1.Sgt. Pepper's Lonely Hearts Club Band
2.With A Little Help From My Friends
3.Lucy In The Sky With Diamonds
4.Getting Better
5.Fixing A Hole
6.She's Leaving Home
7.Being For The Benefit Of Mr. Kite!
8.Within You Without You
9.When I'm Sixty-Four
10.Lovely Rita
11.Good Morning Good Morning
12.Sgt. Pepper's Lonely Hearts Club Band (Reprise)
13.A Day In The Life
1.Magical Mystery Tour
2.The Fool On The Hill
3.Flying
4.Blue Jay Way
5.Your Mother Should Know
6.I Am The Walrus
7.Hello Goodbye
8.Strawberry Fields Forever
9.Penny Lane
10.Baby You're A Rich Man
11.All You Need Is Love
Disc 1

1.Back In The U.S.S.R.
2.Dear Prudence
3.Glass Onion
4.Ob-La-Di, Ob-La-Da
5.Wild Honey Pie
6.The Continuing Story Of Bungalow Bill
7.While My Guitar Gently Weeps
8.Happiness Is A Warm Gun
9.Martha My Dear
10.I'm So Tired
11.Blackbird
12.Piggies
13.Rocky Raccoon
14.Don't Pass Me By
15.Why Don't We Do It In The Road
16.I Will
17.Julia

Disc 2

1.Birthday
2.Yer Blues
3.Mother Nature's Son
4.Everybody's Got Something To Hide Except Me And My Monkey
5.Sexy Sadie
6.Helter Skelter
7.Long, Long, Long
8.Revolution 1
9.Honey Pie
10.Savoy Truffle
11.Cry Baby Cry
12.Revolution 9
13.Good Night
1.Come Together
2.Something
3.Maxwell's Silver Hammer
4.Oh! Darling
5.Octopus's Garden
6.I Want You (She's So Heavy)
7.Here Comes The Sun
8.Because
9.You Never Give Me Your Money
10.Sun King
11.Mean Mr. Mustard
12.Polythene Pam
13.She Came In Through The Bathroom Window
14.Golden Slumbers
15.Carry That Weight
16.The End
17.Her Majesty
1.Yellow Submarine
2.Only A Northern Song
3.All Together Now
4.Hey Bulldog
5.It's All Too Much
6.All You Need Is Love
7.Pepperland
8.Sea of Time
9.Sea of Holes
10.Sea of Monsters
11.March of the Meanies
12.Pepperland Laid Waste
13.Yellow Submarine in Pepperland
1.Two Of Us
2.Dig A Pony
3.Across the Universe
4.I Me Mine
5.Dig It
6.Let It Be
7.Maggie Mae
8.I've Got A Feeling
9.One After 909
10.The Long and Winding Road
11.For You Blue
12.Get Back
Disc1

1.Love Me Do (Original Single Version)
2.From Me To You
3.Thank You Girl
4.She Loves You
5.I'll Get You
6.I Want To Hold Your Hand
7.This Boy
8.Komm, Gib Mir Deine Hand
9.Sie Liebt Dich
10.Long Tall Sally
11.I Call Your Name
12.Slow Down
13.Matchbox
14.I Feel Fine
15.She's A Woman
16.Bad Boy
17.Yes It Is
18.I'm Down

Disc2

1.Day Tripper
2.We Can Work It Out
3.Paperback Writer
4.Rain
5.Lady Madonna
6.The Inner Light
7.Hey Jude
8.Revolution
9.Get back
10.Don't Let Me Down
11.The Ballad of John and Yoko
12.Old Brown Shoe
13.Across The Universe
14.Let It Be
15.You Know My Name (Look Up The Number)
Доп. информация:
Exact Audio Copy V0.99 prebeta 4 from 23. January 2008

Отчёт EAC об извлечении, выполненном 9. января 2010, 12:11

The Beatles Remaster / Please Please Me

Дисковод: ASUS CRW-4824A Adapter: 0 ID: 0

Режим чтения : Достоверность
Использование точного потока : Да
Отключение кэша аудио : Да
Использование указателей C2 : Нет

Коррекция смещения при чтении : 6
Способность читать области Lead-in и Lead-out : Нет
Заполнение пропущенных сэмплов тишиной : Да
Удаление блоков с тишиной в начале и конце : Нет
При вычислениях CRC использовались нулевые сэмплы : Да
Интерфейс : Установленный внешний ASPI-интерфейс

Выходной формат : Внутренние WAV-операции
Формат сэмплов : 44.100 Гц; 16 бит; стерео

TOC извлечённого CD

Трек | Старт | Длительность | Начальный сектор | Конечный сектор
---------------------------------------------------------------------
1 | 0:00.00 | 2:53.71 | 0 | 13045
2 | 2:53.71 | 1:48.41 | 13046 | 21186
3 | 4:42.37 | 2:57.10 | 21187 | 34471
4 | 7:39.47 | 2:25.06 | 34472 | 45352
5 | 10:04.53 | 2:26.33 | 45353 | 56335
6 | 12:31.11 | 2:26.40 | 56336 | 67325
7 | 14:57.51 | 2:00.64 | 67326 | 76389
8 | 16:58.40 | 2:21.52 | 76390 | 87016
9 | 19:20.17 | 2:04.27 | 87017 | 96343
10 | 21:24.44 | 2:40.39 | 96344 | 108382
11 | 24:05.08 | 1:57.01 | 108383 | 117158
12 | 26:02.09 | 2:03.36 | 117159 | 126419
13 | 28:05.45 | 1:50.37 | 126420 | 134706
14 | 29:56.07 | 2:35.17 | 134707 | 146348
15 | 35:03.24 | 24:34.73 | 157749 | 268371

Характеристики диапазона извлечения и сообщения об ошибках

Выбранный диапазон

Имя файла D:\Торрент\The Beatles\1_Please Please Me\The Beatles Remaster - Please Please Me.wav

Пиковый уровень 96.6 %
Качество диапазона 100.0 %
CRC теста 974992C5
CRC копии 974992C5
Копирование... OK

Ошибок не произошло

Конец отчёта
Exact Audio Copy V0.99 prebeta 4 from 23. January 2008

Отчёт EAC об извлечении, выполненном 9. января 2010, 12:24

The Beatles Remaster / With The Beatles

Дисковод: ASUS CRW-4824A Adapter: 0 ID: 0

Режим чтения : Достоверность
Использование точного потока : Да
Отключение кэша аудио : Да
Использование указателей C2 : Нет

Коррекция смещения при чтении : 6
Способность читать области Lead-in и Lead-out : Нет
Заполнение пропущенных сэмплов тишиной : Да
Удаление блоков с тишиной в начале и конце : Нет
При вычислениях CRC использовались нулевые сэмплы : Да
Интерфейс : Установленный внешний ASPI-интерфейс

Выходной формат : Внутренние WAV-операции
Формат сэмплов : 44.100 Гц; 16 бит; стерео

TOC извлечённого CD

Трек | Старт | Длительность | Начальный сектор | Конечный сектор
---------------------------------------------------------------------
1 | 0:00.00 | 2:13.29 | 0 | 10003
2 | 2:13.29 | 2:02.43 | 10004 | 19196
3 | 4:15.72 | 2:07.64 | 19197 | 28785
4 | 6:23.61 | 2:28.19 | 28786 | 39904
5 | 8:52.05 | 1:46.30 | 39905 | 47884
6 | 10:38.35 | 2:13.38 | 47885 | 57897
7 | 12:51.73 | 2:34.12 | 57898 | 69459
8 | 15:26.10 | 2:45.35 | 69460 | 81869
9 | 18:11.45 | 2:31.68 | 81870 | 93262
10 | 20:43.38 | 3:01.26 | 93263 | 106863
11 | 23:44.64 | 1:59.38 | 106864 | 115826
12 | 25:44.27 | 2:26.16 | 115827 | 126792
13 | 28:10.43 | 2:06.62 | 126793 | 136304
14 | 30:17.30 | 2:49.38 | 136305 | 149017
15 | 35:38.68 | 20:40.14 | 160418 | 253431

Характеристики диапазона извлечения и сообщения об ошибках

Выбранный диапазон

Имя файла D:\Торрент\The Beatles\2_With The Beatles\The Beatles Remaster - With The Beatles.wav

Пиковый уровень 96.6 %
Качество диапазона 100.0 %
CRC теста D5AD5443
CRC копии D5AD5443
Копирование... OK

Ошибок не произошло

Конец отчёта
Exact Audio Copy V0.99 prebeta 4 from 23. January 2008

Отчёт EAC об извлечении, выполненном 9. января 2010, 12:34

The Beatles Remaster / A Hard Day's Night

Дисковод: ASUS CRW-4824A Adapter: 0 ID: 0

Режим чтения : Достоверность
Использование точного потока : Да
Отключение кэша аудио : Да
Использование указателей C2 : Нет

Коррекция смещения при чтении : 6
Способность читать области Lead-in и Lead-out : Нет
Заполнение пропущенных сэмплов тишиной : Да
Удаление блоков с тишиной в начале и конце : Нет
При вычислениях CRC использовались нулевые сэмплы : Да
Интерфейс : Установленный внешний ASPI-интерфейс

Выходной формат : Внутренние WAV-операции
Формат сэмплов : 44.100 Гц; 16 бит; стерео

TOC извлечённого CD

Трек | Старт | Длительность | Начальный сектор | Конечный сектор
---------------------------------------------------------------------
1 | 0:00.00 | 2:34.15 | 0 | 11564
2 | 2:34.15 | 2:43.06 | 11565 | 23795
3 | 5:17.21 | 2:19.35 | 23796 | 34255
4 | 7:36.56 | 1:56.28 | 34256 | 42983
5 | 9:33.09 | 2:29.52 | 42984 | 54210
6 | 12:02.61 | 2:08.52 | 54211 | 63862
7 | 14:11.38 | 2:11.65 | 63863 | 73752
8 | 16:23.28 | 2:11.21 | 73753 | 83598
9 | 18:34.49 | 1:45.74 | 83599 | 91547
10 | 20:20.48 | 2:35.25 | 91548 | 103197
11 | 22:55.73 | 2:16.48 | 103198 | 113445
12 | 25:12.46 | 2:34.67 | 113446 | 125062
13 | 27:47.38 | 2:24.14 | 125063 | 135876
14 | 32:43.52 | 24:24.51 | 147277 | 257127

Характеристики диапазона извлечения и сообщения об ошибках

Выбранный диапазон

Имя файла D:\Торрент\The Beatles\3_A Hard Day's Night\The Beatles Remaster - A Hard Day's Night.wav

Пиковый уровень 96.5 %
Качество диапазона 100.0 %
CRC теста D4266738
CRC копии D4266738
Копирование... OK

Ошибок не произошло

Конец отчёта
Exact Audio Copy V0.99 prebeta 4 from 23. January 2008

Отчёт EAC об извлечении, выполненном 9. января 2010, 12:49

The Beatles Remaster / Beatles For Sale

Дисковод: ASUS CRW-4824A Adapter: 0 ID: 0

Режим чтения : Достоверность
Использование точного потока : Да
Отключение кэша аудио : Да
Использование указателей C2 : Нет

Коррекция смещения при чтении : 6
Способность читать области Lead-in и Lead-out : Нет
Заполнение пропущенных сэмплов тишиной : Да
Удаление блоков с тишиной в начале и конце : Нет
При вычислениях CRC использовались нулевые сэмплы : Да
Интерфейс : Установленный внешний ASPI-интерфейс

Выходной формат : Внутренние WAV-операции
Формат сэмплов : 44.100 Гц; 16 бит; стерео

TOC извлечённого CD

Трек | Старт | Длительность | Начальный сектор | Конечный сектор
---------------------------------------------------------------------
1 | 0:00.00 | 2:16.05 | 0 | 10204
2 | 2:16.05 | 2:30.02 | 10205 | 21456
3 | 4:46.07 | 2:04.39 | 21457 | 30795
4 | 6:50.46 | 2:31.21 | 30796 | 42141
5 | 9:21.67 | 1:48.64 | 42142 | 50305
6 | 11:10.56 | 2:38.47 | 50306 | 62202
7 | 13:49.28 | 2:38.11 | 62203 | 74063
8 | 16:27.39 | 2:43.45 | 74064 | 86333
9 | 19:11.09 | 2:04.24 | 86334 | 95657
10 | 21:15.33 | 2:57.32 | 95658 | 108964
11 | 24:12.65 | 2:03.60 | 108965 | 118249
12 | 26:16.50 | 2:34.35 | 118250 | 129834
13 | 28:51.10 | 2:30.03 | 129835 | 141087
14 | 31:21.13 | 2:26.00 | 141088 | 152037
15 | 36:19.13 | 25:05.38 | 163438 | 276350

Характеристики диапазона извлечения и сообщения об ошибках

Выбранный диапазон

Имя файла D:\Торрент\The Beatles\4_Beatles For Sale\The Beatles Remaster - Beatles For Sale.wav

Пиковый уровень 96.7 %
Качество диапазона 100.0 %
CRC теста 6842AE9F
CRC копии 6842AE9F
Копирование... OK

Ошибок не произошло

Конец отчёта
Exact Audio Copy V0.99 prebeta 4 from 23. January 2008

Отчёт EAC об извлечении, выполненном 9. января 2010, 13:03

The Beatles Remaster / Help!

Дисковод: ASUS CRW-4824A Adapter: 0 ID: 0

Режим чтения : Достоверность
Использование точного потока : Да
Отключение кэша аудио : Да
Использование указателей C2 : Нет

Коррекция смещения при чтении : 6
Способность читать области Lead-in и Lead-out : Нет
Заполнение пропущенных сэмплов тишиной : Да
Удаление блоков с тишиной в начале и конце : Нет
При вычислениях CRC использовались нулевые сэмплы : Да
Интерфейс : Установленный внешний ASPI-интерфейс

Выходной формат : Внутренние WAV-операции
Формат сэмплов : 44.100 Гц; 16 бит; стерео

TOC извлечённого CD

Трек | Старт | Длительность | Начальный сектор | Конечный сектор
---------------------------------------------------------------------
1 | 0:00.00 | 2:19.42 | 0 | 10466
2 | 2:19.42 | 2:34.70 | 10467 | 22086
3 | 4:54.37 | 2:09.09 | 22087 | 31770
4 | 7:03.46 | 2:28.59 | 31771 | 42929
5 | 9:32.30 | 2:05.27 | 42930 | 52331
6 | 11:37.57 | 2:18.50 | 52332 | 62731
7 | 13:56.32 | 3:09.51 | 62732 | 76957
8 | 17:06.08 | 2:30.28 | 76958 | 88235
9 | 19:36.36 | 1:56.36 | 88236 | 96971
10 | 21:32.72 | 2:36.65 | 96972 | 108736
11 | 24:09.62 | 2:37.74 | 108737 | 120585
12 | 26:47.61 | 2:05.03 | 120586 | 129963
13 | 28:52.64 | 2:05.50 | 129964 | 139388
14 | 30:58.39 | 2:56.38 | 139389 | 152626
15 | 36:27.02 | 23:24.11 | 164027 | 269337

Характеристики диапазона извлечения и сообщения об ошибках

Выбранный диапазон

Имя файла D:\Торрент\The Beatles\5_Help!\The Beatles Remaster - Help!.wav

Пиковый уровень 96.3 %
Качество диапазона 100.0 %
CRC теста 903BD03D
CRC копии 903BD03D
Копирование... OK

Ошибок не произошло

Конец отчёта
Exact Audio Copy V0.99 prebeta 4 from 23. January 2008

Отчёт EAC об извлечении, выполненном 9. января 2010, 13:21

The Beatles Remaster / Rubber Soul

Дисковод: ASUS CRW-4824A Adapter: 0 ID: 0

Режим чтения : Достоверность
Использование точного потока : Да
Отключение кэша аудио : Да
Использование указателей C2 : Нет

Коррекция смещения при чтении : 6
Способность читать области Lead-in и Lead-out : Нет
Заполнение пропущенных сэмплов тишиной : Да
Удаление блоков с тишиной в начале и конце : Нет
При вычислениях CRC использовались нулевые сэмплы : Да
Интерфейс : Установленный внешний ASPI-интерфейс

Выходной формат : Внутренние WAV-операции
Формат сэмплов : 44.100 Гц; 16 бит; стерео

TOC извлечённого CD

Трек | Старт | Длительность | Начальный сектор | Конечный сектор
---------------------------------------------------------------------
1 | 0:00.00 | 2:28.67 | 0 | 11166
2 | 2:28.67 | 2:04.52 | 11167 | 20518
3 | 4:33.44 | 3:19.72 | 20519 | 35515
4 | 7:53.41 | 2:43.52 | 35516 | 47792
5 | 10:37.18 | 2:18.39 | 47793 | 58181
6 | 12:55.57 | 2:43.08 | 58182 | 70414
7 | 15:38.65 | 2:42.28 | 70415 | 82592
8 | 18:21.18 | 2:48.43 | 82593 | 95235
9 | 21:09.61 | 2:31.54 | 95236 | 106614
10 | 23:41.40 | 2:26.29 | 106615 | 117593
11 | 26:07.69 | 2:26.25 | 117594 | 128568
12 | 28:34.19 | 2:14.54 | 128569 | 138672
13 | 30:48.73 | 2:22.20 | 138673 | 149342
14 | 33:11.18 | 2:21.07 | 149343 | 159924
15 | 38:04.25 | 23:20.17 | 171325 | 276341

Характеристики диапазона извлечения и сообщения об ошибках

Выбранный диапазон

Имя файла D:\Торрент\The Beatles\6_Rubber Soul\The Beatles Remaster - Rubber Soul.wav

Пиковый уровень 95.6 %
Качество диапазона 100.0 %
CRC теста 1EFEFF3F
CRC копии 1EFEFF3F
Копирование... OK

Ошибок не произошло

Конец отчёта
Exact Audio Copy V0.99 prebeta 4 from 23. January 2008

Отчёт EAC об извлечении, выполненном 9. января 2010, 13:33

The Beatles Remaster / Revolver

Дисковод: ASUS CRW-4824A Adapter: 0 ID: 0

Режим чтения : Достоверность
Использование точного потока : Да
Отключение кэша аудио : Да
Использование указателей C2 : Нет

Коррекция смещения при чтении : 6
Способность читать области Lead-in и Lead-out : Нет
Заполнение пропущенных сэмплов тишиной : Да
Удаление блоков с тишиной в начале и конце : Нет
При вычислениях CRC использовались нулевые сэмплы : Да
Интерфейс : Установленный внешний ASPI-интерфейс

Выходной формат : Внутренние WAV-операции
Формат сэмплов : 44.100 Гц; 16 бит; стерео

TOC извлечённого CD

Трек | Старт | Длительность | Начальный сектор | Конечный сектор
---------------------------------------------------------------------
1 | 0:00.00 | 2:38.64 | 0 | 11913
2 | 2:38.64 | 2:06.40 | 11914 | 21403
3 | 4:45.29 | 3:00.24 | 21404 | 34927
4 | 7:45.53 | 2:59.62 | 34928 | 48414
5 | 10:45.40 | 2:24.66 | 48415 | 59280
6 | 13:10.31 | 2:38.66 | 59281 | 71196
7 | 15:49.22 | 2:36.03 | 71197 | 82899
8 | 18:25.25 | 2:09.22 | 82900 | 92596
9 | 20:34.47 | 2:00.37 | 92597 | 101633
10 | 22:35.09 | 1:59.61 | 101634 | 110619
11 | 24:34.70 | 2:14.20 | 110620 | 120689
12 | 26:49.15 | 2:27.73 | 120690 | 131787
13 | 29:17.13 | 2:29.18 | 131788 | 142980
14 | 31:46.31 | 2:59.41 | 142981 | 156446
15 | 37:17.72 | 24:43.64 | 167847 | 279135

Характеристики диапазона извлечения и сообщения об ошибках

Выбранный диапазон

Имя файла D:\Торрент\The Beatles\7_Revolver\The Beatles Remaster - Revolver.wav

Пиковый уровень 96.3 %
Качество диапазона 100.0 %
CRC теста 6D40DBCC
CRC копии 6D40DBCC
Копирование... OK

Ошибок не произошло

Конец отчёта
Exact Audio Copy V0.99 prebeta 4 from 23. January 2008

Отчёт EAC об извлечении, выполненном 9. января 2010, 13:44

The Beatles Remaster / Sgt. Pepper's Lonely Hearts Club Band

Дисковод: ASUS CRW-4824A Adapter: 0 ID: 0

Режим чтения : Достоверность
Использование точного потока : Да
Отключение кэша аудио : Да
Использование указателей C2 : Нет

Коррекция смещения при чтении : 6
Способность читать области Lead-in и Lead-out : Нет
Заполнение пропущенных сэмплов тишиной : Да
Удаление блоков с тишиной в начале и конце : Нет
При вычислениях CRC использовались нулевые сэмплы : Да
Интерфейс : Установленный внешний ASPI-интерфейс

Выходной формат : Внутренние WAV-операции
Формат сэмплов : 44.100 Гц; 16 бит; стерео

TOC извлечённого CD

Трек | Старт | Длительность | Начальный сектор | Конечный сектор
---------------------------------------------------------------------
1 | 0:00.00 | 2:02.67 | 0 | 9216
2 | 2:02.67 | 2:44.08 | 9217 | 21524
3 | 4:47.00 | 3:28.35 | 21525 | 37159
4 | 8:15.35 | 2:48.09 | 37160 | 49768
5 | 11:03.44 | 2:36.62 | 49769 | 61530
6 | 13:40.31 | 3:35.12 | 61531 | 77667
7 | 17:15.43 | 2:37.40 | 77668 | 89482
8 | 19:53.08 | 5:04.50 | 89483 | 112332
9 | 24:57.58 | 2:37.50 | 112333 | 124157
10 | 27:35.33 | 2:42.07 | 124158 | 136314
11 | 30:17.40 | 2:41.17 | 136315 | 148406
12 | 32:58.57 | 1:19.05 | 148407 | 154336
13 | 34:17.62 | 5:37.31 | 154337 | 179642
14 | 42:27.18 | 25:23.16 | 191043 | 305283

Характеристики диапазона извлечения и сообщения об ошибках

Выбранный диапазон

Имя файла D:\Торрент\The Beatles\8_Sgt.Peppers Lonely Heart Club Band\The Beatles Remaster - Sgt. Pepper's Lonely Hearts Club Band.wav

Пиковый уровень 96.9 %
Качество диапазона 100.0 %
CRC теста 67DB3A3A
CRC копии 67DB3A3A
Копирование... OK

Ошибок не произошло

Конец отчёта
Exact Audio Copy V0.99 prebeta 4 from 23. January 2008

Отчёт EAC об извлечении, выполненном 9. января 2010, 13:58

The Beatles Remaster / Magical Mystery Tour

Дисковод: ASUS CRW-4824A Adapter: 0 ID: 0

Режим чтения : Достоверность
Использование точного потока : Да
Отключение кэша аудио : Да
Использование указателей C2 : Нет

Коррекция смещения при чтении : 6
Способность читать области Lead-in и Lead-out : Нет
Заполнение пропущенных сэмплов тишиной : Да
Удаление блоков с тишиной в начале и конце : Нет
При вычислениях CRC использовались нулевые сэмплы : Да
Интерфейс : Установленный внешний ASPI-интерфейс

Выходной формат : Внутренние WAV-операции
Формат сэмплов : 44.100 Гц; 16 бит; стерео

TOC извлечённого CD

Трек | Старт | Длительность | Начальный сектор | Конечный сектор
---------------------------------------------------------------------
1 | 0:00.00 | 2:50.08 | 0 | 12757
2 | 2:50.08 | 2:59.08 | 12758 | 26190
3 | 5:49.16 | 2:15.39 | 26191 | 36354
4 | 8:04.55 | 3:55.05 | 36355 | 53984
5 | 11:59.60 | 2:28.31 | 53985 | 65115
6 | 14:28.16 | 4:35.65 | 65116 | 85805
7 | 19:04.06 | 3:28.63 | 85806 | 101468
8 | 22:32.69 | 4:07.24 | 101469 | 120017
9 | 26:40.18 | 3:00.67 | 120018 | 133584
10 | 29:41.10 | 3:01.23 | 133585 | 147182
11 | 32:42.33 | 3:50.29 | 147183 | 164461
12 | 39:04.62 | 23:58.17 | 175862 | 283728

Характеристики диапазона извлечения и сообщения об ошибках

Выбранный диапазон

Имя файла D:\Торрент\The Beatles\9_Magical Mystery Tour\The Beatles Remaster - Magical Mystery Tour.wav

Пиковый уровень 96.9 %
Качество диапазона 100.0 %
CRC теста D62A3F2E
CRC копии D62A3F2E
Копирование... OK

Ошибок не произошло

Конец отчёта
Exact Audio Copy V0.99 prebeta 4 from 23. January 2008

Отчёт EAC об извлечении, выполненном 9. января 2010, 14:13

The Beatles Remaster / The Beatles 1

Дисковод: ASUS CRW-4824A Adapter: 0 ID: 0

Режим чтения : Достоверность
Использование точного потока : Да
Отключение кэша аудио : Да
Использование указателей C2 : Нет

Коррекция смещения при чтении : 6
Способность читать области Lead-in и Lead-out : Нет
Заполнение пропущенных сэмплов тишиной : Да
Удаление блоков с тишиной в начале и конце : Нет
При вычислениях CRC использовались нулевые сэмплы : Да
Интерфейс : Установленный внешний ASPI-интерфейс

Выходной формат : Внутренние WAV-операции
Формат сэмплов : 44.100 Гц; 16 бит; стерео

TOC извлечённого CD

Трек | Старт | Длительность | Начальный сектор | Конечный сектор
---------------------------------------------------------------------
1 | 0:00.00 | 2:43.34 | 0 | 12258
2 | 2:43.34 | 3:55.58 | 12259 | 29941
3 | 6:39.17 | 2:17.63 | 29942 | 40279
4 | 8:57.05 | 3:08.72 | 40280 | 54451
5 | 12:06.02 | 0:52.73 | 54452 | 58424
6 | 12:59.00 | 3:14.12 | 58425 | 72986
7 | 16:13.12 | 4:45.00 | 72987 | 94361
8 | 20:58.12 | 2:44.41 | 94362 | 106702
9 | 23:42.53 | 2:28.43 | 106703 | 117845
10 | 26:11.21 | 2:03.37 | 117846 | 127107
11 | 28:14.58 | 2:18.29 | 127108 | 137486
12 | 30:33.12 | 2:04.20 | 137487 | 146806
13 | 32:37.32 | 3:33.08 | 146807 | 162789
14 | 36:10.40 | 3:50.34 | 162790 | 180073
15 | 40:00.74 | 1:41.12 | 180074 | 187660
16 | 41:42.11 | 1:45.70 | 187661 | 195605
17 | 43:28.06 | 2:56.50 | 195606 | 208855

Характеристики диапазона извлечения и сообщения об ошибках

Выбранный диапазон

Имя файла D:\Торрент\The Beatles\10_The Beatles (White Album)\1\The Beatles Remaster - The Beatles 1.wav

Пиковый уровень 96.8 %
Качество диапазона 100.0 %
CRC теста 35DD8B94
CRC копии 35DD8B94
Копирование... OK

Ошибок не произошло

Конец отчёта

Exact Audio Copy V0.99 prebeta 4 from 23. January 2008

Отчёт EAC об извлечении, выполненном 9. января 2010, 16:45

The Beatles Remaster / The Beatles 2

Дисковод: ASUS CRW-4824A Adapter: 0 ID: 0

Режим чтения : Достоверность
Использование точного потока : Да
Отключение кэша аудио : Да
Использование указателей C2 : Нет

Коррекция смещения при чтении : 6
Способность читать области Lead-in и Lead-out : Нет
Заполнение пропущенных сэмплов тишиной : Да
Удаление блоков с тишиной в начале и конце : Нет
При вычислениях CRC использовались нулевые сэмплы : Да
Интерфейс : Установленный внешний ASPI-интерфейс

Выходной формат : Внутренние WAV-операции
Формат сэмплов : 44.100 Гц; 16 бит; стерео

TOC извлечённого CD

Трек | Старт | Длительность | Начальный сектор | Конечный сектор
---------------------------------------------------------------------
1 | 0:00.00 | 2:43.06 | 0 | 12230
2 | 2:43.06 | 4:00.34 | 12231 | 30264
3 | 6:43.40 | 2:48.02 | 30265 | 42866
4 | 9:31.42 | 2:24.58 | 42867 | 53724
5 | 11:56.25 | 3:15.20 | 53725 | 68369
6 | 15:11.45 | 4:29.59 | 68370 | 88603
7 | 19:41.29 | 3:06.23 | 88604 | 102576
8 | 22:47.52 | 4:15.53 | 102577 | 121754
9 | 27:03.30 | 2:41.12 | 121755 | 133841
10 | 29:44.42 | 2:54.35 | 133842 | 146926
11 | 32:39.02 | 3:02.06 | 146927 | 160582
12 | 35:41.08 | 8:22.01 | 160583 | 198233
13 | 44:03.09 | 3:13.57 | 198234 | 212765
14 | 49:48.66 | 25:19.30 | 224166 | 338120

Характеристики диапазона извлечения и сообщения об ошибках

Выбранный диапазон

Имя файла D:\Торрент\The Beatles\10_The Beatles (White Album)\2\The Beatles Remaster - The Beatles 2.wav

Пиковый уровень 96.3 %
Качество диапазона 100.0 %
CRC теста 06DB635E
CRC копии 06DB635E
Копирование... OK

Ошибок не произошло

Конец отчёта
Exact Audio Copy V0.99 prebeta 4 from 23. January 2008

Отчёт EAC об извлечении, выполненном 9. января 2010, 14:47

The Beatles Remaster / Yellow Submarine

Дисковод: ASUS CRW-4824A Adapter: 0 ID: 0

Режим чтения : Достоверность
Использование точного потока : Да
Отключение кэша аудио : Да
Использование указателей C2 : Нет

Коррекция смещения при чтении : 6
Способность читать области Lead-in и Lead-out : Нет
Заполнение пропущенных сэмплов тишиной : Да
Удаление блоков с тишиной в начале и конце : Нет
При вычислениях CRC использовались нулевые сэмплы : Да
Интерфейс : Установленный внешний ASPI-интерфейс

Выходной формат : Внутренние WAV-операции
Формат сэмплов : 44.100 Гц; 16 бит; стерео

TOC извлечённого CD

Трек | Старт | Длительность | Начальный сектор | Конечный сектор
---------------------------------------------------------------------
1 | 0:00.00 | 2:39.54 | 0 | 11978
2 | 2:39.54 | 3:24.37 | 11979 | 27315
3 | 6:04.16 | 2:10.67 | 27316 | 37132
4 | 8:15.08 | 3:11.23 | 37133 | 51480
5 | 11:26.31 | 6:25.01 | 51481 | 80356
6 | 17:51.32 | 3:51.16 | 80357 | 97697
7 | 21:42.48 | 2:20.55 | 97698 | 108252
8 | 24:03.28 | 3:00.16 | 108253 | 121768
9 | 27:03.44 | 2:16.52 | 121769 | 132020
10 | 29:20.21 | 3:36.52 | 132021 | 148272
11 | 32:56.73 | 2:19.27 | 148273 | 158724
12 | 35:16.25 | 2:12.58 | 158725 | 168682
13 | 37:29.08 | 2:14.02 | 168683 | 178734
14 | 42:15.10 | 23:36.17 | 190135 | 296351

Характеристики диапазона извлечения и сообщения об ошибках

Выбранный диапазон

Имя файла D:\Торрент\The Beatles\11_Yellow Submarine\The Beatles Remaster - Yellow Submarine.wav

Пиковый уровень 96.8 %
Качество диапазона 100.0 %
CRC теста 2AE66452
CRC копии 2AE66452
Копирование... OK

Ошибок не произошло

Конец отчёта
Exact Audio Copy V0.99 prebeta 4 from 23. January 2008

Отчёт EAC об извлечении, выполненном 9. января 2010, 16:26

The Beatles Remaster / Abbey Road

Дисковод: ASUS CRW-4824A Adapter: 0 ID: 0

Режим чтения : Достоверность
Использование точного потока : Да
Отключение кэша аудио : Да
Использование указателей C2 : Нет

Коррекция смещения при чтении : 6
Способность читать области Lead-in и Lead-out : Нет
Заполнение пропущенных сэмплов тишиной : Да
Удаление блоков с тишиной в начале и конце : Нет
При вычислениях CRC использовались нулевые сэмплы : Да
Интерфейс : Установленный внешний ASPI-интерфейс

Выходной формат : Внутренние WAV-операции
Формат сэмплов : 44.100 Гц; 16 бит; стерео

TOC извлечённого CD

Трек | Старт | Длительность | Начальный сектор | Конечный сектор
---------------------------------------------------------------------
1 | 0:00.00 | 4:19.71 | 0 | 19495
2 | 4:19.71 | 3:02.22 | 19496 | 33167
3 | 7:22.18 | 3:27.69 | 33168 | 48761
4 | 10:50.12 | 3:27.18 | 48762 | 64304
5 | 14:17.30 | 2:50.54 | 64305 | 77108
6 | 17:08.09 | 7:47.24 | 77109 | 112157
7 | 24:55.33 | 3:05.55 | 112158 | 126087
8 | 28:01.13 | 2:45.50 | 126088 | 138512
9 | 30:46.63 | 4:02.73 | 138513 | 156735
10 | 34:49.61 | 2:26.20 | 156736 | 167705
11 | 37:16.06 | 1:06.40 | 167706 | 172695
12 | 38:22.46 | 1:12.48 | 172696 | 178143
13 | 39:35.19 | 1:58.47 | 178144 | 187040
14 | 41:33.66 | 1:31.57 | 187041 | 193922
15 | 43:05.48 | 1:36.35 | 193923 | 201157
16 | 44:42.08 | 2:21.46 | 201158 | 211778
17 | 47:03.54 | 0:25.74 | 211779 | 213727
18 | 50:01.53 | 24:41.32 | 225128 | 336234

Характеристики диапазона извлечения и сообщения об ошибках

Выбранный диапазон

Имя файла D:\Торрент\The Beatles\12_Abbey Road\The Beatles Remaster - Abbey Road.wav

Пиковый уровень 97.2 %
Качество диапазона 100.0 %
CRC теста 13C2D5D2
CRC копии 13C2D5D2
Копирование... OK

Ошибок не произошло

Конец отчёта
Exact Audio Copy V0.99 prebeta 4 from 23. January 2008

Отчёт EAC об извлечении, выполненном 9. января 2010, 16:12

The Beatles Remaster / Let It Be

Дисковод: ASUS CRW-4824A Adapter: 0 ID: 0

Режим чтения : Достоверность
Использование точного потока : Да
Отключение кэша аудио : Да
Использование указателей C2 : Нет

Коррекция смещения при чтении : 6
Способность читать области Lead-in и Lead-out : Нет
Заполнение пропущенных сэмплов тишиной : Да
Удаление блоков с тишиной в начале и конце : Нет
При вычислениях CRC использовались нулевые сэмплы : Да
Интерфейс : Установленный внешний ASPI-интерфейс

Выходной формат : Внутренние WAV-операции
Формат сэмплов : 44.100 Гц; 16 бит; стерео

TOC извлечённого CD

Трек | Старт | Длительность | Начальный сектор | Конечный сектор
---------------------------------------------------------------------
1 | 0:00.00 | 3:36.61 | 0 | 16260
2 | 3:36.61 | 3:55.00 | 16261 | 33885
3 | 7:31.61 | 3:48.10 | 33886 | 50995
4 | 11:19.71 | 2:25.44 | 50996 | 61914
5 | 13:45.40 | 0:50.35 | 61915 | 65699
6 | 14:36.00 | 4:03.02 | 65700 | 83926
7 | 18:39.02 | 0:40.03 | 83927 | 86929
8 | 19:19.05 | 3:37.42 | 86930 | 103246
9 | 22:56.47 | 2:53.72 | 103247 | 116293
10 | 25:50.44 | 3:38.14 | 116294 | 132657
11 | 29:28.58 | 2:32.16 | 132658 | 144073
12 | 32:00.74 | 3:09.29 | 144074 | 158277
13 | 37:42.28 | 23:43.12 | 169678 | 276414

Характеристики диапазона извлечения и сообщения об ошибках

Выбранный диапазон

Имя файла D:\Торрент\The Beatles\13_Let It Be\The Beatles Remaster - Let It Be.wav

Пиковый уровень 96.6 %
Качество диапазона 100.0 %
CRC теста B1F873D0
CRC копии B1F873D0
Копирование... OK

Ошибок не произошло

Конец отчёта
Exact Audio Copy V0.99 prebeta 4 from 23. January 2008

Отчёт EAC об извлечении, выполненном 9. января 2010, 11:30

The Beatles Remaster / Past Masters 1

Дисковод: ASUS CRW-4824A Adapter: 0 ID: 0

Режим чтения : Достоверность
Использование точного потока : Да
Отключение кэша аудио : Да
Использование указателей C2 : Нет

Коррекция смещения при чтении : 6
Способность читать области Lead-in и Lead-out : Нет
Заполнение пропущенных сэмплов тишиной : Да
Удаление блоков с тишиной в начале и конце : Нет
При вычислениях CRC использовались нулевые сэмплы : Да
Интерфейс : Установленный внешний ASPI-интерфейс

Выходной формат : Внутренние WAV-операции
Формат сэмплов : 44.100 Гц; 16 бит; стерео

TOC извлечённого CD

Трек | Старт | Длительность | Начальный сектор | Конечный сектор
---------------------------------------------------------------------
1 | 0:00.00 | 2:25.67 | 0 | 10941
2 | 2:25.67 | 1:57.08 | 10942 | 19724
3 | 4:23.00 | 2:03.45 | 19725 | 28994
4 | 6:26.45 | 2:21.25 | 28995 | 39594
5 | 8:47.70 | 2:06.31 | 39595 | 49075
6 | 10:54.26 | 2:26.40 | 49076 | 60065
7 | 13:20.66 | 2:16.06 | 60066 | 70271
8 | 15:36.72 | 2:25.61 | 70272 | 81207
9 | 18:02.58 | 2:19.30 | 81208 | 91662
10 | 20:22.13 | 2:02.65 | 91663 | 100877
11 | 22:25.03 | 2:08.71 | 100878 | 110548
12 | 24:33.74 | 2:56.64 | 110549 | 123812
13 | 27:30.63 | 1:58.56 | 123813 | 132718
14 | 29:29.44 | 2:19.51 | 132719 | 143194
15 | 31:49.20 | 3:02.66 | 143195 | 156910
16 | 34:52.11 | 2:20.45 | 156911 | 167455
17 | 37:12.56 | 2:42.31 | 167456 | 179636
18 | 39:55.12 | 2:33.67 | 179637 | 191178

Характеристики диапазона извлечения и сообщения об ошибках

Выбранный диапазон

Имя файла D:\Торрент\The Beatles\14_Past Masters\1\The Beatles Remaster - Past Masters 1.wav

Пиковый уровень 96.8 %
Качество диапазона 100.0 %
CRC теста A0077338
CRC копии A0077338
Копирование... OK

Ошибок не произошло

Конец отчёта
Exact Audio Copy V0.99 prebeta 4 from 23. January 2008

Отчёт EAC об извлечении, выполненном 9. января 2010, 11:47

The Beatles Remaster / Past Masters 2

Дисковод: ASUS CRW-4824A Adapter: 0 ID: 0

Режим чтения : Достоверность
Использование точного потока : Да
Отключение кэша аудио : Да
Использование указателей C2 : Нет

Коррекция смещения при чтении : 6
Способность читать области Lead-in и Lead-out : Нет
Заполнение пропущенных сэмплов тишиной : Да
Удаление блоков с тишиной в начале и конце : Нет
При вычислениях CRC использовались нулевые сэмплы : Да
Интерфейс : Установленный внешний ASPI-интерфейс

Выходной формат : Внутренние WAV-операции
Формат сэмплов : 44.100 Гц; 16 бит; стерео

TOC извлечённого CD

Трек | Старт | Длительность | Начальный сектор | Конечный сектор
---------------------------------------------------------------------
1 | 0:00.00 | 2:49.11 | 0 | 12685
2 | 2:49.11 | 2:15.33 | 12686 | 22843
3 | 5:04.44 | 2:18.42 | 22844 | 33235
4 | 7:23.11 | 3:01.24 | 33236 | 46834
5 | 10:24.35 | 2:17.44 | 46835 | 57153
6 | 12:42.04 | 2:36.11 | 57154 | 68864
7 | 15:18.15 | 7:09.70 | 68865 | 101109
8 | 22:28.10 | 3:24.42 | 101110 | 116451
9 | 25:52.52 | 3:11.07 | 116452 | 130783
10 | 29:03.59 | 3:35.46 | 130784 | 146954
11 | 32:39.30 | 2:59.64 | 146955 | 160443
12 | 35:39.19 | 3:18.49 | 160444 | 175342
13 | 38:57.68 | 3:49.13 | 175343 | 192530
14 | 42:47.06 | 3:51.55 | 192531 | 209910
15 | 46:38.61 | 4:19.68 | 209911 | 229403

Характеристики диапазона извлечения и сообщения об ошибках

Выбранный диапазон

Имя файла D:\Торрент\The Beatles\14_Past Masters\2\The Beatles Remaster - Past Masters 2.wav

Пиковый уровень 96.6 %
Качество диапазона 100.0 %
CRC теста 67F6328C
CRC копии 67F6328C
Копирование... OK

Ошибок не произошло

Конец отчёта
Правила, инструкции, FAQ!!!
Торрент  Добавлен [31 мар 2021, 07:08] Скачать торрент Магнет ссылка
Скачать торрент
[ Размер 26.53 КБ / Просмотров 12 ]

Статус
Обновлён Admin (31 мар 2021, 07:08)
 
Размер  3.84 ГБ
Приватный: Нет (DHT включён)
.torrent скачан  4
 


     Отправить личное сообщение
   

СообщениеДобавлено: 31 мар 2021, 03:19 

Ответить с цитатой 

Зарегистрированные пользователи
Зарегистрированные пользователи

Стаж: 1 месяц 16 дней
Раздал: 0 байт
Скачал: 0 байт
Ратио: Inf.
Торренты: 0
торрент неверно закодирован


Профиль     Отправить личное сообщение
   

СообщениеДобавлено: 31 мар 2021, 07:09 

Ответить с цитатой 

Администратор
Администратор

Стаж: 8 лет 6 месяцев 1 день
Раздал: 296.23 ГБ
Скачал: 158.38 ГБ
Ратио: 1.870
Торренты: 13
Обновил битый торрент-файл, спасибо!

_________________
Не скачивается раздача? напишите об этом в теме!


Профиль     Отправить личное сообщение
   
Страница 1 из 1
Показать сообщения за:  Поле сортировки  
Начать новую тему Ответить на тему


Сейчас этот форум просматривают: нет зарегистрированных пользователей и гости: 0


Вы не можете начинать темы
Вы не можете отвечать на сообщения
Вы не можете редактировать свои сообщения
Вы не можете удалять свои сообщения
Вы не можете добавлять вложения

Перейти:  
cron