Начать новую тему Ответить на тему
Статистика раздачи
Размер: 846.8 МБ | Добавлен: 26 мар 2019, 20:09 | Скачали: 0
Сидеров: 3  [0 байт/сек]    Личеров: 1  [0 байт/сек]
Пред. тема | След. тема 

Автор
Сообщение

СообщениеДобавлено: 26 мар 2019, 20:09 

Ответить с цитатой 

Sting - Nothing Like The Rarities
Жанр: Rock
Год выпуска диска: 2000
Производитель диска: Англия
Аудио кодек: FLAC
Тип рипа: tracks
Битрейт аудио: lossless
Продолжительность: 2:23:42 (CD1 1:16:42; CD2 1:07:00)
Трэклист:
CD1
01 Another Pyramid 03:49
02 My One and Only Love 03:35
03 End of the Game 06:37
04 My Funny Friend and Me 04:36
05 How Insensitive 01:45
06 Moonlight 05:23
07 Beneath a Desert Moon 04:27
08 I'll Follow My Secret Heart 02:35
09 Nice Work if You Can Get It 03:01
10 Someone To Watch Over Me (live) 04:23
11 The Bed's Too Big Without You `96 (with Rankin Roger) 06:05
12 The Wind Cries Mary 02:24
13 Gabriel's Message 02:12
14 The Mighty 03:50
15 Sisters of Mercy (with the Chieftains) 03:22
16 Angel Eyes 03:59
17 Fragile (with Julio Iglesias) 04:24
18 I Miss You Kate 03:44
19 Penny Lane (live) 02:40
20 Mad About You (with George Dalaras) 03:42
Exact Audio Copy V0.99 prebeta 4 from 23. January 2008
Отчёт EAC об извлечении, выполненном 24. января 2009, 15:31
Sting / ... Nothing Like The Rarities CD1
Дисковод: MATSHITAUJ-832D Adapter: 0 ID: 0
Режим чтения : Достоверность
Использование точного потока : Да
Отключение кэша аудио : Да
Использование указателей C2 : Да
Комбинированное смещение чтения/записи : 0
Способность читать области Lead-in и Lead-out : Нет
Заполнение пропущенных сэмплов тишиной : Да
Удаление блоков с тишиной в начале и конце : Нет
При вычислениях CRC использовались нулевые сэмплы : Нет
Интерфейс : Встроенный Win32-интерфейс для Win NT/2000
Обработка зазоров : Не обнаружено, добавлено к предыдущему треку
Выходной формат : Пользовательский кодировщик
Выбранный битрейт : 768 kBit/s
Качество : Высокий
Добавление ID3-тэга : Нет
Утилита сжатия : C:\Program Files\Exact Audio Copy\FLAC\FLAC.EXE
Дополнительные параметры : -6 -V -T "ARTIST=%a" -T "TITLE=%t" -T "ALBUM=%g" -T "DATE=%y" -T "TRACKNUMBER=%n" -T "GENRE=%m" -T "COMMENT=%e" %s -o %d
TOC извлечённого CD
Трек | Старт | Длительность | Начальный сектор | Конечный сектор
---------------------------------------------------------------------
1 | 0:00.00 | 3:49.38 | 0 | 17212
2 | 3:49.38 | 3:35.56 | 17213 | 33393
3 | 7:25.19 | 6:37.04 | 33394 | 63172
4 | 14:02.23 | 4:36.06 | 63173 | 83878
5 | 18:38.29 | 1:45.62 | 83879 | 91815
6 | 20:24.16 | 5:23.54 | 91816 | 116094
7 | 25:47.70 | 4:27.49 | 116095 | 136168
8 | 30:15.44 | 2:35.01 | 136169 | 147794
9 | 32:50.45 | 3:01.32 | 147795 | 161401
10 | 35:52.02 | 4:23.08 | 161402 | 181134
11 | 40:15.10 | 6:05.66 | 181135 | 208575
12 | 46:21.01 | 2:24.43 | 208576 | 219418
13 | 48:45.44 | 2:12.10 | 219419 | 229328
14 | 50:57.54 | 3:50.06 | 229329 | 246584
15 | 54:47.60 | 3:22.46 | 246585 | 261780
16 | 58:10.31 | 3:59.11 | 261781 | 279716
17 | 62:09.42 | 4:24.06 | 279717 | 299522
18 | 66:33.48 | 3:44.67 | 299523 | 316389
19 | 70:18.40 | 2:40.68 | 316390 | 328457
20 | 72:59.33 | 3:42.55 | 328458 | 345162
Трек 1
Имя файла C:\Documents and Settings\Alexei\Рабочий стол\Another Pyramid.wav
Пиковый уровень 95.7 %
Качество трека 99.9 %
CRC теста A297AF32
CRC копии A297AF32
Копирование... OK
Трек 2
Имя файла C:\Documents and Settings\Alexei\Рабочий стол\My One and Only Love.wav
Пиковый уровень 100.0 %
Качество трека 100.0 %
CRC теста 67FB6780
CRC копии 67FB6780
Копирование... OK
Трек 3
Имя файла C:\Documents and Settings\Alexei\Рабочий стол\End of the Game.wav
Пиковый уровень 98.9 %
Качество трека 100.0 %
CRC теста F6755E65
CRC копии F6755E65
Копирование... OK
Трек 4
Имя файла C:\Documents and Settings\Alexei\Рабочий стол\My Funny Friend and Me.wav
Пиковый уровень 100.0 %
Качество трека 100.0 %
CRC теста DCE16F93
CRC копии DCE16F93
Копирование... OK
Трек 5
Имя файла C:\Documents and Settings\Alexei\Рабочий стол\How Insensitive.wav
Пиковый уровень 100.0 %
Качество трека 99.7 %
CRC теста 4AAEEDD2
CRC копии 4AAEEDD2
Копирование... OK
Трек 6
Имя файла C:\Documents and Settings\Alexei\Рабочий стол\Moonlight.wav
Пиковый уровень 100.0 %
Качество трека 100.0 %
CRC теста A6232875
CRC копии A6232875
Копирование... OK
Трек 7
Имя файла C:\Documents and Settings\Alexei\Рабочий стол\Beneath a Desert Moon.wav
Пиковый уровень 99.4 %
Качество трека 100.0 %
CRC теста 99CCB45B
CRC копии 99CCB45B
Копирование... OK
Трек 8
Имя файла C:\Documents and Settings\Alexei\Рабочий стол\I'll Follow My Secret Heart.wav
Пиковый уровень 86.7 %
Качество трека 100.0 %
CRC теста 081AF0D1
CRC копии 081AF0D1
Копирование... OK
Трек 9
Имя файла C:\Documents and Settings\Alexei\Рабочий стол\Nice Work if You Can Get It.wav
Пиковый уровень 99.5 %
Качество трека 100.0 %
CRC теста 11640809
CRC копии 11640809
Копирование... OK
Трек 10
Имя файла C:\Documents and Settings\Alexei\Рабочий стол\Someone To Watch Over Me (Live).wav
Пиковый уровень 98.9 %
Качество трека 100.0 %
CRC теста 84068CF6
CRC копии 84068CF6
Копирование... OK
Трек 11
Имя файла C:\Documents and Settings\Alexei\Рабочий стол\The Bed's Too Big Without You `96 (with Rankin Roger).wav
Пиковый уровень 92.8 %
Качество трека 100.0 %
CRC теста E9018016
CRC копии E9018016
Копирование... OK
Трек 12
Имя файла C:\Documents and Settings\Alexei\Рабочий стол\The Wind Cries Mary.wav
Пиковый уровень 100.0 %
Качество трека 100.0 %
CRC теста B6AADE9C
CRC копии B6AADE9C
Копирование... OK
Трек 13
Имя файла C:\Documents and Settings\Alexei\Рабочий стол\Gabriel's Message.wav
Пиковый уровень 83.4 %
Качество трека 100.0 %
CRC теста EAF797E0
CRC копии EAF797E0
Копирование... OK
Трек 14
Имя файла C:\Documents and Settings\Alexei\Рабочий стол\The Mighty.wav
Пиковый уровень 99.8 %
Качество трека 100.0 %
CRC теста 2CB1EF5B
CRC копии 2CB1EF5B
Копирование... OK
Трек 15
Имя файла C:\Documents and Settings\Alexei\Рабочий стол\Sisters of Mercy (wint the Chieftains).wav
Пиковый уровень 100.0 %
Качество трека 100.0 %
CRC теста 4A5985B2
CRC копии 4A5985B2
Копирование... OK
Трек 16
Имя файла C:\Documents and Settings\Alexei\Рабочий стол\Angel Eyes.wav
Пиковый уровень 100.0 %
Качество трека 100.0 %
CRC теста 7E7F91E2
CRC копии 7E7F91E2
Копирование... OK
Трек 17
Имя файла C:\Documents and Settings\Alexei\Рабочий стол\Fragile (with Julio Iglesias).wav
Пиковый уровень 96.4 %
Качество трека 100.0 %
CRC теста 4B19A8B4
CRC копии 4B19A8B4
Копирование... OK
Трек 18
Имя файла C:\Documents and Settings\Alexei\Рабочий стол\I Miss You Kate.wav
Пиковый уровень 97.2 %
Качество трека 100.0 %
CRC теста 364ABABF
CRC копии 364ABABF
Копирование... OK
Трек 19
Имя файла C:\Documents and Settings\Alexei\Рабочий стол\Penny Lane (Live).wav
Пиковый уровень 99.9 %
Качество трека 99.8 %
CRC теста DC2058E8
CRC копии DC2058E8
Копирование... OK
Трек 20
Имя файла C:\Documents and Settings\Alexei\Рабочий стол\Mad About You (with George Dalaras).wav
Пиковый уровень 99.9 %
Качество трека 99.3 %
CRC теста B4479024
CRC копии B4479024
Копирование... OK
Ошибок не произошло
Конец отчёта
CD2
01 Every Breath You Take (with Robert Downey Jr.) 04:23
02 It's A Lonesome Old Town 02:36
03 Windmills Of Your Mind 04:19
04 One Day She'll Love Me (with Shawn Colvin) 04:10
05 Need Your Love So Bad 03:39
06 You Were Meant For Me 04:14
07 Seventh Son (with Jools Holland) 03:04
08 Lullaby To An Anxious Child 01:56
09 The Ballad Of Mack The Knife 02:48
10 Ain't No Sunshine (live Acoustic) 05:06
11 Tempted (live) 04:42
12 Be Bop A Lula 01:51
13 I Saw Three Ships 01:44
14 Come Down In Time 03:46
15 Waters Of Tyne (with Jimmy Nail) 03:18
16 Ne Me Quittes Pas (live) 03:33
17 Until 03:09
18 On Silent Wings (with Tina Turner) 04:20
19 English Jam (with John McLaughlin) 01:11
20 Purple Haze (live) 03:02
Exact Audio Copy V0.99 prebeta 4 from 23. January 2008
Отчёт EAC об извлечении, выполненном 24. января 2009, 17:04
Sting / ...Nothing Like The Rarities CD2
Дисковод: MATSHITAUJ-832D Adapter: 0 ID: 0
Режим чтения : Достоверность
Использование точного потока : Да
Отключение кэша аудио : Да
Использование указателей C2 : Да
Комбинированное смещение чтения/записи : 0
Способность читать области Lead-in и Lead-out : Нет
Заполнение пропущенных сэмплов тишиной : Да
Удаление блоков с тишиной в начале и конце : Нет
При вычислениях CRC использовались нулевые сэмплы : Нет
Интерфейс : Встроенный Win32-интерфейс для Win NT/2000
Обработка зазоров : Не обнаружено, добавлено к предыдущему треку
Выходной формат : Пользовательский кодировщик
Выбранный битрейт : 768 kBit/s
Качество : Высокий
Добавление ID3-тэга : Нет
Утилита сжатия : C:\Program Files\Exact Audio Copy\FLAC\FLAC.EXE
Дополнительные параметры : -6 -V -T "ARTIST=%a" -T "TITLE=%t" -T "ALBUM=%g" -T "DATE=%y" -T "TRACKNUMBER=%n" -T "GENRE=%m" -T "COMMENT=%e" %s -o %d
TOC извлечённого CD
Трек | Старт | Длительность | Начальный сектор | Конечный сектор
---------------------------------------------------------------------
1 | 0:00.00 | 4:23.71 | 0 | 19795
2 | 4:23.71 | 2:36.46 | 19796 | 31541
3 | 7:00.42 | 4:19.03 | 31542 | 50969
4 | 11:19.45 | 4:10.34 | 50970 | 69753
5 | 15:30.04 | 3:39.18 | 69754 | 86196
6 | 19:09.22 | 4:14.17 | 86197 | 105263
7 | 23:23.39 | 3:04.41 | 105264 | 119104
8 | 26:28.05 | 1:56.67 | 119105 | 127871
9 | 28:24.72 | 2:48.29 | 127872 | 140500
10 | 31:13.26 | 5:06.01 | 140501 | 163451
11 | 36:19.27 | 4:42.71 | 163452 | 184672
12 | 41:02.23 | 1:51.73 | 184673 | 193070
13 | 42:54.21 | 1:44.57 | 193071 | 200927
14 | 44:39.03 | 3:46.06 | 200928 | 217883
15 | 48:25.09 | 3:18.57 | 217884 | 232790
16 | 51:43.66 | 3:33.13 | 232791 | 248778
17 | 55:17.04 | 3:09.01 | 248779 | 262954
18 | 58:26.05 | 4:20.44 | 262955 | 282498
19 | 62:46.49 | 1:11.71 | 282499 | 287894
20 | 63:58.45 | 3:02.09 | 287895 | 301553
Трек 1
Имя файла C:\Documents and Settings\Alexei\Рабочий стол\01.Every Breath You Take (with R. Downey Jr.).wav
Пиковый уровень 100.0 %
Качество трека 100.0 %
CRC теста A808A297
CRC копии A808A297
Копирование... OK
Трек 2
Имя файла C:\Documents and Settings\Alexei\Рабочий стол\02.It's a Lonesome Town.wav
Пиковый уровень 100.0 %
Качество трека 100.0 %
CRC теста 982E96D4
CRC копии 982E96D4
Копирование... OK
Трек 3
Имя файла C:\Documents and Settings\Alexei\Рабочий стол\03.Windmills of Your Mind.wav
Пиковый уровень 98.7 %
Качество трека 100.0 %
CRC теста B7C3FA22
CRC копии B7C3FA22
Копирование... OK
Трек 4
Имя файла C:\Documents and Settings\Alexei\Рабочий стол\04.One Day She'll Love Me (with Shawn Colvin).wav
Пиковый уровень 100.0 %
Качество трека 100.0 %
CRC теста A361CCBC
CRC копии A361CCBC
Копирование... OK
Трек 5
Имя файла C:\Documents and Settings\Alexei\Рабочий стол\05.Need Your Love So Bad.wav
Пиковый уровень 100.0 %
Качество трека 100.0 %
CRC теста FC91112C
CRC копии FC91112C
Копирование... OK
Трек 6
Имя файла C:\Documents and Settings\Alexei\Рабочий стол\06.You Were Meant For Me.wav
Пиковый уровень 100.0 %
Качество трека 100.0 %
CRC теста 7377C9F4
CRC копии 7377C9F4
Копирование... OK
Трек 7
Имя файла C:\Documents and Settings\Alexei\Рабочий стол\07.Seventh Son (with Jools Holland).wav
Пиковый уровень 96.6 %
Качество трека 99.8 %
CRC теста F968D52C
CRC копии F968D52C
Копирование... OK
Трек 8
Имя файла C:\Documents and Settings\Alexei\Рабочий стол\08.Lullaby To An Anxious Child.wav
Пиковый уровень 100.0 %
Качество трека 100.0 %
CRC теста BDDB3C2B
CRC копии BDDB3C2B
Копирование... OK
Трек 9
Имя файла C:\Documents and Settings\Alexei\Рабочий стол\09.The Ballad Of Mack The Knife.wav
Пиковый уровень 100.0 %
Качество трека 100.0 %
CRC теста 6423D4EC
CRC копии 6423D4EC
Копирование... OK
Трек 10
Имя файла C:\Documents and Settings\Alexei\Рабочий стол\10.Ain't No Sunshine (live acoustic).wav
Пиковый уровень 100.0 %
Качество трека 99.9 %
CRC теста 8DCBAFAC
CRC копии 8DCBAFAC
Копирование... OK
Трек 11
Имя файла C:\Documents and Settings\Alexei\Рабочий стол\11.Tempted (live).wav
Пиковый уровень 100.0 %
Качество трека 100.0 %
CRC теста 405C888D
CRC копии 405C888D
Копирование... OK
Трек 12
Имя файла C:\Documents and Settings\Alexei\Рабочий стол\12.Be Bop A Lula.wav
Пиковый уровень 100.0 %
Качество трека 100.0 %
CRC теста 0D340E9B
CRC копии 0D340E9B
Копирование... OK
Трек 13
Имя файла C:\Documents and Settings\Alexei\Рабочий стол\13.I Saw Three Ships.wav
Пиковый уровень 99.8 %
Качество трека 100.0 %
CRC теста 2D707C1F
CRC копии 2D707C1F
Копирование... OK
Трек 14
Имя файла C:\Documents and Settings\Alexei\Рабочий стол\14.Come Down In Time.wav
Пиковый уровень 100.0 %
Качество трека 100.0 %
CRC теста 18664BB9
CRC копии 18664BB9
Копирование... OK
Трек 15
Имя файла C:\Documents and Settings\Alexei\Рабочий стол\15.Waters Of Tyne (with Jimmy Nail).wav
Пиковый уровень 100.0 %
Качество трека 100.0 %
CRC теста 2A1146F8
CRC копии 2A1146F8
Копирование... OK
Трек 16
Имя файла C:\Documents and Settings\Alexei\Рабочий стол\16.Ne Me Quittes Pas (live).wav
Пиковый уровень 100.0 %
Качество трека 100.0 %
CRC теста 3E797677
CRC копии 3E797677
Копирование... OK
Трек 17
Имя файла C:\Documents and Settings\Alexei\Рабочий стол\17.Until.wav
Пиковый уровень 100.0 %
Качество трека 99.8 %
CRC теста AA0DDC64
CRC копии AA0DDC64
Копирование... OK
Трек 18
Имя файла C:\Documents and Settings\Alexei\Рабочий стол\18.On Silent Wings (with Tina Turner).wav
Пиковый уровень 99.2 %
Качество трека 100.0 %
CRC теста CE9287C8
CRC копии CE9287C8
Копирование... OK
Трек 19
Имя файла C:\Documents and Settings\Alexei\Рабочий стол\19.English Jam (with John McLaughlin).wav
Пиковый уровень 100.0 %
Качество трека 100.0 %
CRC теста 2BEB27CA
CRC копии 2BEB27CA
Копирование... OK
Трек 20
Имя файла C:\Documents and Settings\Alexei\Рабочий стол\20.Purple Haze (live).wav
Пиковый уровень 96.0 %
Качество трека 100.0 %
CRC теста D32E8845
CRC копии D32E8845
Копирование... OK
Ошибок не произошло
Конец отчёта
Правила, инструкции, FAQ!!!
Торрент  Добавлен [26 мар 2019, 20:09] Скачать торрент Магнет ссылка
Скачать торрент
[ Размер 21.39 КБ / Просмотров 8 ]

Статус
Проверен 
 
Размер  846.8 МБ
Приватный: Нет (DHT включён)
.torrent скачан  0
 


     Отправить личное сообщение
   
Страница 1 из 1
Показать сообщения за:  Поле сортировки  
Начать новую тему Ответить на тему


Сейчас этот форум просматривают: нет зарегистрированных пользователей и гости: 0


Вы не можете начинать темы
Вы не можете отвечать на сообщения
Вы не можете редактировать свои сообщения
Вы не можете удалять свои сообщения
Вы не можете добавлять вложения

Перейти:  
cron