Начать новую тему Ответить на тему
Статистика раздачи
Размер: 405.46 МБ | Добавлен: 26 мар 2019, 21:08 | Скачали: 0
Сидеров: 0  [0 байт/сек]    Личеров: 0  [0 байт/сек]
Пред. тема | След. тема 

Автор
Сообщение

СообщениеДобавлено: 26 мар 2019, 21:08 

Ответить с цитатой 

Sting - ...all this time

Жанр: Rock
Год выпуска диска: 2001
Производитель диска: England
Аудио кодек: APE
Тип рипа: image+.cue
Битрейт аудио: lossless
Продолжительность: 1:01:40
Источник: Alex ZAM
Список песен:
01. (4:36) Fragile
02. (3:02) A Thousand Years
03. (4:11) Perfect Love ... Gone Wrong
04. (5:21) All This Time
05. (4:30) The Hounds of Winter
06. (2:16) Don't Stand So Close to Me
07. (4:52) When We Dance
08. (3:12) Dienda
09. (3:37) Roxanne
10. (4:57) If You Love Somebody Set Them Free
11. (4:46) Brand New Day
12. (3:50) Fields of Gold
13. (2:55) Moon over Bourbon Street
14. (4:31) If I Ever Lose My Faith in You
15. (5:04) Every Breath You Take
Код:
Exact Audio Copy V0.99 prebeta 4 from 23. January 2008
EAC extraction logfile from 15. August 2009, 10:26
Sting / All This Time
Used drive  : HL-DT-STDVD-RAM GSA-H22N   Adapter: 1  ID: 0
Read mode               : Secure
Utilize accurate stream : Yes
Defeat audio cache      : Yes
Make use of C2 pointers : No
Read offset correction                      : 102
Overread into Lead-In and Lead-Out          : No
Fill up missing offset samples with silence : Yes
Delete leading and trailing silent blocks   : No
Null samples used in CRC calculations       : Yes
Used interface                              : Installed external ASPI interface
Used output format : Internal WAV Routines
Sample format      : 44.100 Hz; 16 Bit; Stereo
TOC of the extracted CD
     Track |   Start  |  Length  | Start sector | End sector
    ---------------------------------------------------------
        1  |  0:00.00 |  4:35.65 |         0    |    20689
        2  |  4:35.65 |  3:02.17 |     20690    |    34356
        3  |  7:38.07 |  4:11.10 |     34357    |    53191
        4  | 11:49.17 |  5:20.43 |     53192    |    77234
        5  | 17:09.60 |  4:29.60 |     77235    |    97469
        6  | 21:39.45 |  2:15.47 |     97470    |   107641
        7  | 23:55.17 |  4:52.00 |    107642    |   129541
        8  | 28:47.17 |  3:12.33 |    129542    |   143974
        9  | 31:59.50 |  3:36.45 |    143975    |   160219
       10  | 35:36.20 |  4:57.02 |    160220    |   182496
       11  | 40:33.22 |  4:46.35 |    182497    |   203981
       12  | 45:19.57 |  3:50.10 |    203982    |   221241
       13  | 49:09.67 |  2:55.35 |    221242    |   234401
       14  | 52:05.27 |  4:31.05 |    234402    |   254731
       15  | 56:36.32 |  5:04.20 |    254732    |   277551
Range status and errors
Selected range
     Filename C:\Music\OUT Record\Sting\S-ATT\Sting - All This Time.wav
     Peak level 98.8 %
     Range quality 100.0 %
     Copy CRC C3630E0A
     Copy OK
No errors occurred
AccurateRip summary
Track  1  accurately ripped (confidence 13)  [7A19FB83]
Track  2  accurately ripped (confidence 13)  [F2F9ECA7]
Track  3  accurately ripped (confidence 12)  [946ACF27]
Track  4  accurately ripped (confidence 11)  [97435D81]
Track  5  accurately ripped (confidence 13)  [467C7AEA]
Track  6  accurately ripped (confidence 13)  [15D41638]
Track  7  accurately ripped (confidence 12)  [04F5D2C6]
Track  8  accurately ripped (confidence 12)  [67789756]
Track  9  accurately ripped (confidence 12)  [417D3D9D]
Track 10  accurately ripped (confidence 11)  [58C8E61A]
Track 11  accurately ripped (confidence 11)  [514746CD]
Track 12  accurately ripped (confidence 13)  [5A258B63]
Track 13  accurately ripped (confidence 9)  [ECB2A4CC]
Track 14  accurately ripped (confidence 10)  [BBFAE82F]
Track 15  accurately ripped (confidence 11)  [7DD5BDE3]
All tracks accurately ripped
End of status report
Правила, инструкции, FAQ!!!
Торрент  Добавлен [26 мар 2019, 21:08] Скачать торрент Магнет ссылка
Скачать торрент
[ Размер 33.05 КБ / Просмотров 2 ]

Статус
Проверен 
 
Размер  405.46 МБ
Приватный: Нет (DHT включён)
.torrent скачан  0
 


     Отправить личное сообщение
   
Страница 1 из 1
Показать сообщения за:  Поле сортировки  
Начать новую тему Ответить на тему


Сейчас этот форум просматривают: нет зарегистрированных пользователей и гости: 0


Вы не можете начинать темы
Вы не можете отвечать на сообщения
Вы не можете редактировать свои сообщения
Вы не можете удалять свои сообщения
Вы не можете добавлять вложения

Перейти:  
cron