Начать новую тему Ответить на тему
Статистика раздачи
Размер: 335.23 МБ | Добавлен: 26 мар 2019, 21:04 | Скачали: 0
Сидеров: 0  [0 байт/сек]    Личеров: 0  [0 байт/сек]
Пред. тема | След. тема 

Автор
Сообщение

СообщениеДобавлено: 26 мар 2019, 21:04 

Ответить с цитатой 

Stan Ridgway - Neon Mirage
Жанр: Rock
Год выпуска диска: 2010
Страна: USA
Производитель диска: A440 Records
Аудио кодек: FLAC
Тип рипа: image+.cue
Битрейт аудио: lossless
Продолжительность: 49:22
Наличие сканов в содержимом раздачи:
Трэклист:
01 – Big Green Tree (3:34)
02 – This Town Called Fate (3:25)
03 – Desert Of Dreams (3:58)
04 – Halfway There (3:44)
05 – Turn A Blind Eye (3:44)
06 – Wandering Star (4:03)
07 – Flag Up On A Pole (4:46)
08 – Lenny Bruce (4:18)
09 – Scavenger Hunt (4:47)
10 – Behind the Mask (6:18)
11 – Neon Mirage (2:54)
12 – Day Up In the Sun (3:45)
Доп. информация: http://en.wikipedia.org/wiki/Stan_Ridgway
Код:
Exact Audio Copy V0.99 prebeta 5 from 4. May 2009
EAC extraction logfile from 15. February 2011, 2:50
Stan Ridgway / Neon Mirage
Used drive  : TEAC    CD-W552E   Adapter: 1  ID: 0
Read mode               : Secure
Utilize accurate stream : Yes
Defeat audio cache      : Yes
Make use of C2 pointers : No
Read offset correction                      : 6
Overread into Lead-In and Lead-Out          : No
Fill up missing offset samples with silence : Yes
Delete leading and trailing silent blocks   : No
Null samples used in CRC calculations       : Yes
Used interface                              : Installed external ASPI interface
Used output format : Internal WAV Routines
Sample format      : 44.100 Hz; 16 Bit; Stereo
TOC of the extracted CD
     Track |   Start  |  Length  | Start sector | End sector
    ---------------------------------------------------------
        1  |  0:00.00 |  3:34.47 |         0    |    16096
        2  |  3:34.47 |  3:25.54 |     16097    |    31525
        3  |  7:00.26 |  3:58.57 |     31526    |    49432
        4  | 10:59.08 |  3:44.12 |     49433    |    66244
        5  | 14:43.20 |  3:44.42 |     66245    |    83086
        6  | 18:27.62 |  4:03.01 |     83087    |   101312
        7  | 22:30.63 |  4:46.45 |    101313    |   122807
        8  | 27:17.33 |  4:18.31 |    122808    |   142188
        9  | 31:35.64 |  4:47.36 |    142189    |   163749
       10  | 36:23.25 |  6:18.51 |    163750    |   192150
       11  | 42:42.01 |  2:54.62 |    192151    |   205262
       12  | 45:36.63 |  3:45.24 |    205263    |   222161
Range status and errors
Selected range
     Filename C:\Stan Ridgway - Neon Mirage (2010)\Stan Ridgway - Neon Mirage.wav
     Peak level 100.0 %
     Range quality 100.0 %
     Copy CRC F3D3A6CD
     Copy OK
No errors occurred
AccurateRip summary
Track  1  accurately ripped (confidence 4)  [7D2B79AA]
Track  2  accurately ripped (confidence 4)  [D50257F8]
Track  3  accurately ripped (confidence 4)  [D93172C9]
Track  4  accurately ripped (confidence 4)  [62E9927E]
Track  5  accurately ripped (confidence 4)  [6FDB0A0A]
Track  6  accurately ripped (confidence 4)  [587EDA8E]
Track  7  accurately ripped (confidence 4)  [CA7C7B8A]
Track  8  accurately ripped (confidence 4)  [A6890F33]
Track  9  accurately ripped (confidence 4)  [5BD09952]
Track 10  accurately ripped (confidence 4)  [EB081CD2]
Track 11  accurately ripped (confidence 4)  [4FED0D34]
Track 12  accurately ripped (confidence 4)  [D361B940]
All tracks accurately ripped
End of status report
Код:
REM GENRE Rock
REM DATE 2010
REM DISCID AC0B920C
REM COMMENT "ExactAudioCopy v0.99pb5"
PERFORMER "Stan Ridgway"
TITLE "Neon Mirage"
FILE "Stan Ridgway - Neon Mirage.wav" WAVE
  TRACK 01 AUDIO
    TITLE "Big Green Tree"
    PERFORMER "Stan Ridgway"
    INDEX 01 00:00:00
  TRACK 02 AUDIO
    TITLE "This Town Called Fate"
    PERFORMER "Stan Ridgway"
    INDEX 00 03:34:08
    INDEX 01 03:34:47
  TRACK 03 AUDIO
    TITLE "Desert of Dreams"
    PERFORMER "Stan Ridgway"
    INDEX 01 07:00:26
  TRACK 04 AUDIO
    TITLE "Halfway There"
    PERFORMER "Stan Ridgway"
    INDEX 00 10:58:02
    INDEX 01 10:59:08
  TRACK 05 AUDIO
    TITLE "Turn a Blind Eye"
    PERFORMER "Stan Ridgway"
    INDEX 01 14:43:20
  TRACK 06 AUDIO
    TITLE "Wandering Star"
    PERFORMER "Stan Ridgway"
    INDEX 00 18:26:32
    INDEX 01 18:27:62
  TRACK 07 AUDIO
    TITLE "Flag Up on a Pole"
    PERFORMER "Stan Ridgway"
    INDEX 01 22:30:63
  TRACK 08 AUDIO
    TITLE "Lenny Bruce"
    PERFORMER "Stan Ridgway"
    INDEX 00 27:16:21
    INDEX 01 27:17:33
  TRACK 09 AUDIO
    TITLE "Scavenger Hunt"
    PERFORMER "Stan Ridgway"
    INDEX 00 31:35:10
    INDEX 01 31:35:64
  TRACK 10 AUDIO
    TITLE "Behind the Mask"
    PERFORMER "Stan Ridgway"
    INDEX 00 36:21:41
    INDEX 01 36:23:25
  TRACK 11 AUDIO
    TITLE "Neon Mirage"
    PERFORMER "Stan Ridgway"
    INDEX 00 42:41:01
    INDEX 01 42:42:01
  TRACK 12 AUDIO
    TITLE "Day Up in the Sun"
    PERFORMER "Stan Ridgway"
    INDEX 01 45:36:63
источник: Я
Правила, инструкции, FAQ!!!
Торрент  Добавлен [26 мар 2019, 21:04] Скачать торрент Магнет ссылка
Скачать торрент
[ Размер 14.14 КБ / Просмотров 1 ]

Статус
Проверен 
 
Размер  335.23 МБ
Приватный: Нет (DHT включён)
.torrent скачан  0
 


     Отправить личное сообщение
   
Страница 1 из 1
Показать сообщения за:  Поле сортировки  
Начать новую тему Ответить на тему


Сейчас этот форум просматривают: нет зарегистрированных пользователей и гости: 0


Вы не можете начинать темы
Вы не можете отвечать на сообщения
Вы не можете редактировать свои сообщения
Вы не можете удалять свои сообщения
Вы не можете добавлять вложения

Перейти:  
cron