Начать новую тему Ответить на тему
Статистика раздачи
Размер: 577.29 МБ | Добавлен: 26 мар 2019, 19:59 | Скачали: 0
Сидеров: 0  [0 байт/сек]    Личеров: 0  [0 байт/сек]
Пред. тема | След. тема 

Автор
Сообщение

СообщениеДобавлено: 26 мар 2019, 19:59 

Ответить с цитатой 

William Shatner - Seeking Major Tom
Жанр: Rock, Spoken Word
Страна-производитель диска: U.S.A.
Год издания диска: 2011
Издатель (лейбл): Cleopatra Records
Номер по каталогу: 741157479928
Страна: U.S.A.
Аудиокодек: FLAC (*.flac)
Тип рипа: tracks+.cue
Битрейт аудио: lossless
Продолжительность: 58:32.613 + 36:52.613
Источник (релизер): volume/Demonoid
Наличие сканов в содержимом раздачи: да
Треклист:
Disc 1
01. Major Tom (Coming Home) [5:17]
02. Space Oddity [4:54]
03. In A Little While [3:51]
04. Space Cowboy [5:24]
05. Space Truckin' [5:07]
06. Rocket Man [4:39]
07. She Blinded Me With Science [5:49]
08. Walking On The Moon [2:51]
09. Spirit In The Sky [4:24]
10. Bohemian Rhapsody [5:39]
11. Silver Machine [4:45]
12. Mrs. Major Tom [5:46]
Disc 2
01. Empty Glass [3:14]
02. Lost In The Stars [3:42]
03. Learning To Fly [4:43]
04. Mr. Spaceman [2:13]
05. Twilight Zone [7:24]
06. Struggle [4:11]
07. Iron Man [6:31]
08. Planet Earth [4:50]
Код:
Exact Audio Copy V1.0 beta 1 from 15. November 2010
EAC extraction logfile from 12. November 2011, 14:55
William Shatner / Seeking Major Tom
Used drive  : BENQ    DVD DD DW1640   Adapter: 0  ID: 0
Read mode               : Secure
Utilize accurate stream : Yes
Defeat audio cache      : Yes
Make use of C2 pointers : No
Read offset correction                      : 618
Overread into Lead-In and Lead-Out          : No
Fill up missing offset samples with silence : Yes
Delete leading and trailing silent blocks   : No
Null samples used in CRC calculations       : Yes
Used interface                              : Native Win32 interface for Win NT & 2000
Gap handling                                : Appended to previous track
Used output format              : User Defined Encoder
Selected bitrate                : 1024 kBit/s
Quality                         : High
Add ID3 tag                     : No
Command line compressor         : C:\Program Files\Exact Audio Copy\FLAC\FLAC.EXE
Additional command line options : -8 -V -T "ARTIST=%a" -T "TITLE=%t" -T "ALBUM=%g" -T "DATE=%y" -T "TRACKNUMBER=%n" -T "TOTALTRACKS=%x" -T "GENRE=%m" -T "ALBUM ARTIST=%v" -T "ALBUMARTIST=%v" -T "COMMENT=EAC V1.0 beta 1, Secure Mode, Test & Copy, AccurateRip
TOC of the extracted CD
     Track |   Start  |  Length  | Start sector | End sector
    ---------------------------------------------------------
        1  |  0:00.00 |  5:17.61 |         0    |    23835
        2  |  5:17.61 |  4:54.37 |     23836    |    45922
        3  | 10:12.23 |  3:51.23 |     45923    |    63270
        4  | 14:03.46 |  5:24.46 |     63271    |    87616
        5  | 19:28.17 |  5:07.47 |     87617    |   110688
        6  | 24:35.64 |  4:39.16 |    110689    |   131629
        7  | 29:15.05 |  5:49.68 |    131630    |   157872
        8  | 35:04.73 |  2:51.43 |    157873    |   170740
        9  | 37:56.41 |  4:24.37 |    170741    |   190577
       10  | 42:21.03 |  5:39.51 |    190578    |   216053
       11  | 48:00.54 |  4:45.10 |    216054    |   237438
       12  | 52:45.64 |  5:46.57 |    237439    |   263445
Track  1
     Filename F:\new\William Shatner - Seeking Major Tom\CD 1\01 - Major Tom (Coming Home).wav
     Pre-gap length  0:00:02.00
     Peak level 98.8 %
     Extraction speed 3.2 X
     Track quality 100.0 %
     Test CRC 156D1D1A
     Copy CRC 156D1D1A
     Track not present in AccurateRip database
     Copy OK
Track  2
     Filename F:\new\William Shatner - Seeking Major Tom\CD 1\02 - Space Oddity.wav
     Pre-gap length  0:00:03.07
     Peak level 98.8 %
     Extraction speed 3.5 X
     Track quality 100.0 %
     Test CRC 799EECAC
     Copy CRC 799EECAC
     Track not present in AccurateRip database
     Copy OK
Track  3
     Filename F:\new\William Shatner - Seeking Major Tom\CD 1\03 - In a Little While.wav
     Pre-gap length  0:00:02.55
     Peak level 98.8 %
     Extraction speed 3.7 X
     Track quality 100.0 %
     Test CRC A906ABF5
     Copy CRC A906ABF5
     Track not present in AccurateRip database
     Copy OK
Track  4
     Filename F:\new\William Shatner - Seeking Major Tom\CD 1\04 - Space Cowboy.wav
     Pre-gap length  0:00:03.44
     Peak level 98.8 %
     Extraction speed 3.9 X
     Track quality 100.0 %
     Test CRC 98B8F3B7
     Copy CRC 98B8F3B7
     Track not present in AccurateRip database
     Copy OK
Track  5
     Filename F:\new\William Shatner - Seeking Major Tom\CD 1\05 - Space Truckin'.wav
     Pre-gap length  0:00:03.15
     Peak level 98.8 %
     Extraction speed 3.9 X
     Track quality 100.0 %
     Test CRC B99EE62E
     Copy CRC B99EE62E
     Track not present in AccurateRip database
     Copy OK
Track  6
     Filename F:\new\William Shatner - Seeking Major Tom\CD 1\06 - Rocket Man.wav
     Pre-gap length  0:00:02.71
     Peak level 95.6 %
     Extraction speed 4.2 X
     Track quality 100.0 %
     Test CRC F54CE9C2
     Copy CRC F54CE9C2
     Track not present in AccurateRip database
     Copy OK
Track  7
     Filename F:\new\William Shatner - Seeking Major Tom\CD 1\07 - She Blinded Me with Science.wav
     Pre-gap length  0:00:02.37
     Peak level 98.8 %
     Extraction speed 4.2 X
     Track quality 100.0 %
     Test CRC 6CC2625B
     Copy CRC 6CC2625B
     Track not present in AccurateRip database
     Copy OK
Track  8
     Filename F:\new\William Shatner - Seeking Major Tom\CD 1\08 - Walking on the Moon.wav
     Pre-gap length  0:00:02.17
     Peak level 100.0 %
     Extraction speed 3.9 X
     Track quality 100.0 %
     Test CRC 744AEEAE
     Copy CRC 744AEEAE
     Track not present in AccurateRip database
     Copy OK
Track  9
     Filename F:\new\William Shatner - Seeking Major Tom\CD 1\09 - Spirit in the Sky.wav
     Pre-gap length  0:00:02.14
     Peak level 98.8 %
     Extraction speed 4.5 X
     Track quality 100.0 %
     Test CRC 488391BF
     Copy CRC 488391BF
     Track not present in AccurateRip database
     Copy OK
Track 10
     Filename F:\new\William Shatner - Seeking Major Tom\CD 1\10 - Bohemian Rhapsody.wav
     Pre-gap length  0:00:02.20
     Peak level 98.8 %
     Extraction speed 4.3 X
     Track quality 99.9 %
     Test CRC 0178DD58
     Copy CRC 0178DD58
     Track not present in AccurateRip database
     Copy OK
Track 11
     Filename F:\new\William Shatner - Seeking Major Tom\CD 1\11 - Silver Machine.wav
     Pre-gap length  0:00:02.08
     Peak level 100.0 %
     Extraction speed 3.8 X
     Track quality 100.0 %
     Test CRC 47477E18
     Copy CRC 47477E18
     Track not present in AccurateRip database
     Copy OK
Track 12
     Filename F:\new\William Shatner - Seeking Major Tom\CD 1\12 - Mrs. Major Tom.wav
     Pre-gap length  0:00:02.44
     Peak level 91.5 %
     Extraction speed 3.2 X
     Track quality 100.0 %
     Test CRC 8FC53339
     Copy CRC 8FC53339
     Track not present in AccurateRip database
     Copy OK
None of the tracks are present in the AccurateRip database
No errors occurred
End of status report
==== Log checksum 56A5AA666A0F8A27DFC8CE762A37E47A3765948A53B4FDA853FBAAD83E1C78CB ====
Код:
Exact Audio Copy V1.0 beta 1 from 15. November 2010
EAC extraction logfile from 12. November 2011, 15:24
William Shatner / Seeking Major Tom
Used drive  : BENQ    DVD DD DW1640   Adapter: 0  ID: 0
Read mode               : Secure
Utilize accurate stream : Yes
Defeat audio cache      : Yes
Make use of C2 pointers : No
Read offset correction                      : 618
Overread into Lead-In and Lead-Out          : No
Fill up missing offset samples with silence : Yes
Delete leading and trailing silent blocks   : No
Null samples used in CRC calculations       : Yes
Used interface                              : Native Win32 interface for Win NT & 2000
Gap handling                                : Appended to previous track
Used output format              : User Defined Encoder
Selected bitrate                : 1024 kBit/s
Quality                         : High
Add ID3 tag                     : No
Command line compressor         : C:\Program Files\Exact Audio Copy\FLAC\FLAC.EXE
Additional command line options : -8 -V -T "ARTIST=%a" -T "TITLE=%t" -T "ALBUM=%g" -T "DATE=%y" -T "TRACKNUMBER=%n" -T "TOTALTRACKS=%x" -T "GENRE=%m" -T "ALBUM ARTIST=%v" -T "ALBUMARTIST=%v" -T "COMMENT=EAC V1.0 beta 1, Secure Mode, Test & Copy, AccurateRip
TOC of the extracted CD
     Track |   Start  |  Length  | Start sector | End sector
    ---------------------------------------------------------
        1  |  0:00.00 |  3:14.34 |         0    |    14583
        2  |  3:14.34 |  3:42.54 |     14584    |    31287
        3  |  6:57.13 |  4:43.23 |     31288    |    52535
        4  | 11:40.36 |  2:13.70 |     52536    |    62580
        5  | 13:54.31 |  7:24.22 |     62581    |    95902
        6  | 21:18.53 |  4:11.58 |     95903    |   114785
        7  | 25:30.36 |  6:31.42 |    114786    |   144152
        8  | 32:02.03 |  4:50.43 |    144153    |   165945
Track  1
     Filename F:\new\William Shatner - Seeking Major Tom\CD 2\01 - Empty Glass.wav
     Pre-gap length  0:00:02.00
     Peak level 98.8 %
     Extraction speed 3.1 X
     Track quality 100.0 %
     Test CRC 64D8951B
     Copy CRC 64D8951B
     Track not present in AccurateRip database
     Copy OK
Track  2
     Filename F:\new\William Shatner - Seeking Major Tom\CD 2\02 - Lost in the Stars.wav
     Pre-gap length  0:00:02.54
     Peak level 88.1 %
     Extraction speed 2.1 X
     Track quality 100.0 %
     Test CRC E55598E9
     Copy CRC E55598E9
     Track not present in AccurateRip database
     Copy OK
Track  3
     Filename F:\new\William Shatner - Seeking Major Tom\CD 2\03 - Learning to Fly.wav
     Pre-gap length  0:00:03.29
     Peak level 98.8 %
     Extraction speed 3.3 X
     Track quality 100.0 %
     Test CRC 813C8BD5
     Copy CRC 813C8BD5
     Track not present in AccurateRip database
     Copy OK
Track  4
     Filename F:\new\William Shatner - Seeking Major Tom\CD 2\04 - Mr. Spaceman.wav
     Pre-gap length  0:00:02.42
     Peak level 95.4 %
     Extraction speed 3.2 X
     Track quality 100.0 %
     Test CRC DDB307F1
     Copy CRC DDB307F1
     Track not present in AccurateRip database
     Copy OK
Track  5
     Filename F:\new\William Shatner - Seeking Major Tom\CD 2\05 - Twilight Zone.wav
     Pre-gap length  0:00:02.28
     Peak level 98.8 %
     Extraction speed 3.4 X
     Track quality 99.9 %
     Test CRC A047FB12
     Copy CRC A047FB12
     Track not present in AccurateRip database
     Copy OK
Track  6
     Filename F:\new\William Shatner - Seeking Major Tom\CD 2\06 - Struggle.wav
     Pre-gap length  0:00:03.25
     Peak level 98.8 %
     Extraction speed 3.7 X
     Track quality 100.0 %
     Test CRC EA14D2B2
     Copy CRC EA14D2B2
     Track not present in AccurateRip database
     Copy OK
Track  7
     Filename F:\new\William Shatner - Seeking Major Tom\CD 2\07 - Iron Man.wav
     Pre-gap length  0:00:02.05
     Peak level 98.8 %
     Extraction speed 4.0 X
     Track quality 100.0 %
     Test CRC A5BDC1AB
     Copy CRC A5BDC1AB
     Track not present in AccurateRip database
     Copy OK
Track  8
     Filename F:\new\William Shatner - Seeking Major Tom\CD 2\08 - Planet Earth.wav
     Pre-gap length  0:00:02.53
     Peak level 98.8 %
     Extraction speed 3.6 X
     Track quality 99.9 %
     Test CRC D67F65C9
     Copy CRC D67F65C9
     Track not present in AccurateRip database
     Copy OK
None of the tracks are present in the AccurateRip database
No errors occurred
End of status report
==== Log checksum 47611DE621AFCDB8BA6CDF37E8BBAC4119439887155C100DF821FDA0FD3C9355 ====
Код:
REM GENRE Humour
REM DATE 2011
REM DISCID AA0DB80C
REM COMMENT "ExactAudioCopy v1.0b1"
PERFORMER "William Shatner"
TITLE "Seeking Major Tom (CD 1)"
FILE "01 - Major Tom (Coming Home).wav" WAVE
  TRACK 01 AUDIO
    TITLE "Major Tom (Coming Home)"
    PERFORMER "William Shatner"
    INDEX 01 00:00:00
  TRACK 02 AUDIO
    TITLE "Space Oddity"
    PERFORMER "William Shatner"
    FLAGS DCP
    INDEX 00 05:14:54
FILE "02 - Space Oddity.wav" WAVE
    INDEX 01 00:00:00
  TRACK 03 AUDIO
    TITLE "In a Little While"
    PERFORMER "William Shatner"
    FLAGS DCP
    INDEX 00 04:51:57
FILE "03 - In a Little While.wav" WAVE
    INDEX 01 00:00:00
  TRACK 04 AUDIO
    TITLE "Space Cowboy"
    PERFORMER "William Shatner"
    FLAGS DCP
    INDEX 00 03:47:54
FILE "04 - Space Cowboy.wav" WAVE
    INDEX 01 00:00:00
  TRACK 05 AUDIO
    TITLE "Space Truckin'"
    PERFORMER "William Shatner"
    FLAGS DCP
    INDEX 00 05:21:31
FILE "05 - Space Truckin'.wav" WAVE
    INDEX 01 00:00:00
  TRACK 06 AUDIO
    TITLE "Rocket Man"
    PERFORMER "William Shatner"
    FLAGS DCP
    INDEX 00 05:04:51
FILE "06 - Rocket Man.wav" WAVE
    INDEX 01 00:00:00
  TRACK 07 AUDIO
    TITLE "She Blinded Me with Science"
    PERFORMER "William Shatner"
    FLAGS DCP
    INDEX 00 04:36:54
FILE "07 - She Blinded Me with Science.wav" WAVE
    INDEX 01 00:00:00
  TRACK 08 AUDIO
    TITLE "Walking on the Moon"
    PERFORMER "William Shatner"
    FLAGS DCP
    INDEX 00 05:47:51
FILE "08 - Walking on the Moon.wav" WAVE
    INDEX 01 00:00:00
  TRACK 09 AUDIO
    TITLE "Spirit in the Sky"
    PERFORMER "William Shatner"
    FLAGS DCP
    INDEX 00 02:49:29
FILE "09 - Spirit in the Sky.wav" WAVE
    INDEX 01 00:00:00
  TRACK 10 AUDIO
    TITLE "Bohemian Rhapsody"
    PERFORMER "William Shatner"
    FLAGS DCP
    INDEX 00 04:22:17
FILE "10 - Bohemian Rhapsody.wav" WAVE
    INDEX 01 00:00:00
  TRACK 11 AUDIO
    TITLE "Silver Machine"
    PERFORMER "William Shatner"
    FLAGS DCP
    INDEX 00 05:37:43
FILE "11 - Silver Machine.wav" WAVE
    INDEX 01 00:00:00
  TRACK 12 AUDIO
    TITLE "Mrs. Major Tom"
    PERFORMER "William Shatner"
    FLAGS DCP
    INDEX 00 04:42:41
FILE "12 - Mrs. Major Tom.wav" WAVE
    INDEX 01 00:00:00
Код:
REM GENRE Rock
REM DATE 2011
REM DISCID 6008A408
REM COMMENT "ExactAudioCopy v1.0b1"
PERFORMER "William Shatner"
TITLE "Seeking Major Tom (CD 2)"
FILE "01 - Empty Glass.wav" WAVE
  TRACK 01 AUDIO
    TITLE "Empty Glass"
    PERFORMER "William Shatner"
    INDEX 01 00:00:00
  TRACK 02 AUDIO
    TITLE "Lost in the Stars"
    PERFORMER "William Shatner"
    FLAGS DCP
    INDEX 00 03:11:55
FILE "02 - Lost in the Stars.wav" WAVE
    INDEX 01 00:00:00
  TRACK 03 AUDIO
    TITLE "Learning to Fly"
    PERFORMER "William Shatner"
    FLAGS DCP
    INDEX 00 03:39:25
FILE "03 - Learning to Fly.wav" WAVE
    INDEX 01 00:00:00
  TRACK 04 AUDIO
    TITLE "Mr. Spaceman"
    PERFORMER "William Shatner"
    FLAGS DCP
    INDEX 00 04:40:56
FILE "04 - Mr. Spaceman.wav" WAVE
    INDEX 01 00:00:00
  TRACK 05 AUDIO
    TITLE "Twilight Zone"
    PERFORMER "William Shatner"
    FLAGS DCP
    INDEX 00 02:11:42
FILE "05 - Twilight Zone.wav" WAVE
    INDEX 01 00:00:00
  TRACK 06 AUDIO
    TITLE "Struggle"
    PERFORMER "William Shatner"
    FLAGS DCP
    INDEX 00 07:20:72
FILE "06 - Struggle.wav" WAVE
    INDEX 01 00:00:00
  TRACK 07 AUDIO
    TITLE "Iron Man"
    PERFORMER "William Shatner"
    FLAGS DCP
    INDEX 00 04:09:53
FILE "07 - Iron Man.wav" WAVE
    INDEX 01 00:00:00
  TRACK 08 AUDIO
    TITLE "Planet Earth"
    PERFORMER "William Shatner"
    FLAGS DCP
    INDEX 00 06:28:64
FILE "08 - Planet Earth.wav" WAVE
    INDEX 01 00:00:00
Код:
-----------------------
DON'T MODIFY THIS FILE
-----------------------
PERFORMER: auCDtect Task Manager, ver. 1.5.1RC3 build 1.5.1.4
Copyright (c) 2008-2010 y-soft. All rights reserved
[url=http://y-soft.org]http://y-soft.org[/url]
ANALYZER: auCDtect: CD records authenticity detector, version 0.8.2
Copyright (c) 2004 Oleg Berngardt. All rights reserved.
Copyright (c) 2004 Alexander Djourik. All rights reserved.
FILE: 01 - Major Tom (Coming Home).wav
  Size: 56062316 Hash: A7E036C31C72F4666A89EE7B25EF8426 Accuracy: -m0
  Conclusion: CDDA 99%
  Signature: 556FFBD2AC329A386D48809A0EEB662121151C40
FILE: 02 - Space Oddity.wav
  Size: 51948668 Hash: 42448085EFBDA0FE183B3E834961B8C3 Accuracy: -m0
  Conclusion: CDDA 100%
  Signature: DFEBEC198240659C18D94EC2161CCF7818CCB678
FILE: 03 - In a Little While.wav
  Size: 40802540 Hash: D6E8AD3094563A55319DCB2A9B07D022 Accuracy: -m0
  Conclusion: CDDA 100%
  Signature: CEC15C9089D32C8680D4C4AE38D60750B9A66FBD
FILE: 04 - Space Cowboy.wav
  Size: 57261836 Hash: A0765ECF26D1EC67B9F3212587041CA2 Accuracy: -m0
  Conclusion: CDDA 100%
  Signature: 6008537D0613F219FCE0192DA0C6353EAC7EB9E6
FILE: 05 - Space Truckin'.wav
  Size: 54265388 Hash: 500DF75842192D51416FBA297E71B307 Accuracy: -m0
  Conclusion: CDDA 100%
  Signature: A01CA23640E1D15EEED69300798D9B1829940F74
FILE: 06 - Rocket Man.wav
  Size: 49253276 Hash: EDA52BF58FD13E2458E31B189C246F08 Accuracy: -m0
  Conclusion: CDDA 100%
  Signature: 7F74231B857F9E9ECE8ABD128A4B8AE557AA5F7F
FILE: 07 - She Blinded Me with Science.wav
  Size: 61723580 Hash: 736ABB768EAA06FE1EBDF39A060D670A Accuracy: -m0
  Conclusion: CDDA 100%
  Signature: D18D9F291CE7D500354CADE81939C2B7E6EB4630
FILE: 08 - Walking on the Moon.wav
  Size: 30265580 Hash: 05EFE2839BBD696881CD48778D05B0D9 Accuracy: -m0
  Conclusion: CDDA 100%
  Signature: 07B3DB4260FDAD86556BF480C185237129FA6E9E
FILE: 09 - Spirit in the Sky.wav
  Size: 46656668 Hash: AE56ED995A028C2A7ED24FD80C99667B Accuracy: -m0
  Conclusion: CDDA 100%
  Signature: FAEE0F5A4790141D7A901E65176372B2AF700A55
FILE: 10 - Bohemian Rhapsody.wav
  Size: 59919596 Hash: FBD1D27CBE73C84AD773EDF96B184358 Accuracy: -m0
  Conclusion: CDDA 100%
  Signature: BBEE2B319F32B85CFF1D3F5155BAFE8CF3014D79
FILE: 11 - Silver Machine.wav
  Size: 50297564 Hash: 7DAB9B823F7FC2A271268F7CAB65F0E3 Accuracy: -m0
  Conclusion: CDDA 100%
  Signature: D686B39245A1CA3762339BB6906A2DFFEEEC6F4F
FILE: 12 - Mrs. Major Tom.wav
  Size: 61168508 Hash: D797DA6A223776DBD5315CEBB6B657E8 Accuracy: -m0
  Conclusion: CDDA 99%
  Signature: A25A887776FED3A6E5233DD941C26E67703C8A56
Код:
-----------------------
DON'T MODIFY THIS FILE
-----------------------
PERFORMER: auCDtect Task Manager, ver. 1.5.1RC3 build 1.5.1.4
Copyright (c) 2008-2010 y-soft. All rights reserved
[url=http://y-soft.org]http://y-soft.org[/url]
ANALYZER: auCDtect: CD records authenticity detector, version 0.8.2
Copyright (c) 2004 Oleg Berngardt. All rights reserved.
Copyright (c) 2004 Alexander Djourik. All rights reserved.
FILE: 01 - Empty Glass.wav
  Size: 34301612 Hash: 64A48B693ADD3D0A0D8169C5D09FD930 Accuracy: -m0
  Conclusion: CDDA 100%
  Signature: B48B7F65FDC05360498AECB975C290138CB51765
FILE: 02 - Lost in the Stars.wav
  Size: 39287852 Hash: 54E65B78040A3932B6EC1389A3DCB51F Accuracy: -m0
  Conclusion: CDDA 100%
  Signature: 16EEAE7C74F531942AAEC128D675058B937E02DF
FILE: 03 - Learning to Fly.wav
  Size: 49975340 Hash: 75E8631782860D3F5990B3797307C104 Accuracy: -m0
  Conclusion: CDDA 100%
  Signature: E4C8F161A22363AEB34FF9556E3320494EC5415F
FILE: 04 - Mr. Spaceman.wav
  Size: 23625884 Hash: CF83A3E62598FC62BF60991A36CCFBB1 Accuracy: -m0
  Conclusion: CDDA 100%
  Signature: 33DCEFD7069710EF8471613D2693E6DEC4915E92
FILE: 05 - Twilight Zone.wav
  Size: 78373388 Hash: 1C93010855B4208FD0AFA2E1F86EE9F3 Accuracy: -m0
  Conclusion: CDDA 100%
  Signature: 01925EF2C4615A47D8ABF5C55916C12E0C1CFC55
FILE: 06 - Struggle.wav
  Size: 44412860 Hash: BC3F22E457C56AB5C04EE420C0B7FD76 Accuracy: -m0
  Conclusion: CDDA 100%
  Signature: A04438177E87EE285D55D66482242C9B2DA324B6
FILE: 07 - Iron Man.wav
  Size: 69071228 Hash: 18F16AEFBF2FF90E3663EB9090907E9A Accuracy: -m0
  Conclusion: CDDA 100%
  Signature: 638357C498599E66B1885A6B934FA8D88D1CECA2
FILE: 08 - Planet Earth.wav
  Size: 51257180 Hash: 6DE5F7983C72C932A8D4974558DC0B6F Accuracy: -m0
  Conclusion: CDDA 100%
  Signature: 58CF85DD35BC95B4F72D9D24DD8FDED265470B01
Правила, инструкции, FAQ!!!
Торрент  Добавлен [26 мар 2019, 19:59] Скачать торрент Магнет ссылка
Скачать торрент
[ Размер 13.66 КБ / Просмотров 3 ]

Статус
Проверен 
 
Размер  577.29 МБ
Приватный: Нет (DHT включён)
.torrent скачан  0
 


     Отправить личное сообщение
   
Страница 1 из 1
Показать сообщения за:  Поле сортировки  
Начать новую тему Ответить на тему


Сейчас этот форум просматривают: нет зарегистрированных пользователей и гости: 0


Вы не можете начинать темы
Вы не можете отвечать на сообщения
Вы не можете редактировать свои сообщения
Вы не можете удалять свои сообщения
Вы не можете добавлять вложения

Перейти:  
cron